<?xml version="1.0" standalone="no"?>
<!DOCTYPE svg PUBLIC "-//W3C//DTD SVG 1.1//EN" "http://www.w3.org/Graphics/SVG/1.1/DTD/svg11.dtd" >
<svg xmlns="http://www.w3.org/2000/svg">
<metadata>
This is a custom SVG font generated by IcoMoon.
<iconset grid="16"></iconset>
</metadata>
<defs>
<font id="map-icons" horiz-adv-x="512" >
<font-face units-per-em="512" ascent="480" descent="-32" />
<missing-glyph horiz-adv-x="512" />
<glyph class="hidden" unicode="&#xf000;" d="M0,480L 512 -32L0 -32 z" horiz-adv-x="0" />
<glyph unicode="&#xe000;" d="M 256.154,455.424c-79.872,0-144.599-63.529-144.599-141.865C 111.555,235.203, 256.154-21.76, 256.154-21.76s 144.609,256.963, 144.609,335.319
	C 400.763,391.895, 335.995,455.424, 256.154,455.424z"  />
<glyph unicode="&#xe001;" d="M 20.48,318.638L 20.48,459.52L 166.902,459.52L 220.785,418.56L 130.99,418.56L 225.28,318.638L 166.902,264.96L 71.68,354.55L 71.68,264.755 zM 491.52,134.38L 491.52-11.52L 345.098-11.52L 291.215,29.44L 381.010,29.44L 286.72,131.871L 345.098,186.798L 440.32,98.468L 440.32,188.262 z"  />
<glyph unicode="&#xe002;" d="M 20.48,318.638L 20.48,459.52L 166.902,459.52L 220.785,418.56L 130.99,418.56L 225.28,318.638L 166.902,264.96L 71.68,354.55L 71.68,264.755 zM 345.62,459.52L 491.52,459.52L 491.52,318.116L 450.56,264.243L 450.56,354.028L 348.129,259.738L 293.202,315.607L 381.532,408.32L 291.738,408.32 zM 491.52,134.38L 491.52-11.52L 345.098-11.52L 291.215,29.44L 381.010,29.44L 286.72,131.871L 345.098,186.798L 440.32,98.468L 440.32,188.262 zM 166.38-11.52L 20.48-11.52L 20.48,134.902L 61.44,188.785L 61.44,98.99L 163.871,193.28L 218.798,134.902L 130.468,39.68L 220.262,39.68 z"  />
<glyph unicode="&#xe003;" d="M 460.8,469.76L 51.2,469.76L 51.2,60.16L 205.752,60.16L 261.448-22.272L 317.153,60.16L 460.8,60.16 z"  />
<glyph unicode="&#xe004;" d="M 486.349,259.072C 484.045,383.57, 411.822,433.039, 408.863,434.995l-11.172,7.639l-11.254-7.619c-18.698-12.687-38.083-19.128-57.61-19.128
	c-32.338,0-54.292,17.408-55.224,18.166L 261.007,444.16l-12.503-10.138c-0.922-0.737-22.866-18.135-55.214-18.135c-19.507,0-38.881,6.431-57.61,19.159
	l-11.203,7.557l-11.284-7.629C 105.533,429.711, 38.298,380.047, 35.86,259.686C 34.888,249.201, 63.805,51.057, 261.11-6.4
	C 475.617,56.289, 487.455,245.996, 486.349,259.072z"  />
<glyph unicode="&#xe005;" d="M 435.814,304.814c 2.847,33.853, 13.056,64.932, 31.027,93.43L 397.885,464.64c-21.78-18.053-46.602-28.058-74.701-29.819
	c-25.764-2.243-50.176,2.468-73.155,14.162c-23.613-11.305-47.933-16.046-73.277-14.162c-26.235,2.253-49.9,11.213-71.096,27.075L 36.526,395.52
	c 17.009-28.897, 26.481-59.136, 28.334-90.706c 0.881-14.531-3.42-34.56-13.097-60.416c-5.059-14.336-8.878-26.778-11.5-37.171
	c-2.417-10.332-3.922-18.708-4.434-25.006c-0.348-27.556, 7.68-52.439, 24.146-74.568c 12.872-16.148, 34.099-33.987, 63.57-53.494
	c 32.236-15.8, 57.19-26.051, 74.67-30.423c 5.018-2.263, 9.912-4.424, 14.5-6.502c 4.557-2.089, 9.441-4.147, 14.531-6.38
	c 11.008-6.349, 18.719-13.22, 22.784-20.316c 4.997,7.69, 12.892,14.377, 23.378,20.316c 7.393,3.113, 13.67,5.786, 18.698,8.161
	c 5.028,2.15, 8.776,3.738, 10.947,4.71c 3.738,1.772, 8.622,3.82, 14.561,6.083c 5.96,2.263, 13.363,5.028, 22.159,8.1
	c 17.029,5.796, 29.43,11.295, 37.304,16.251c 28.59,19.497, 49.49,37.059, 62.792,52.736c 17.050,22.2, 25.344,47.206, 24.965,75.305
	c-1.014,12.595-6.554,32.727-16.609,60.16C 438.661,269.097, 434.432,289.843, 435.814,304.814z"  />
<glyph unicode="&#xe006;" d="M 143.36,316.16c 30.72-10.24, 51.2-36.332, 51.2-70.738l0-264.366 C 194.56-27.075, 202.783-32, 194.386-32L 42.824-32 C 34.447-32, 30.72-27.075, 30.72-18.954L 30.72,245.422 
		C 30.72,279.91, 51.2,308.439, 81.92,316.16L 81.92,439.040 l 61.44,0 L 143.36,316.16 zM 81.92,480L 143.36,480L 143.36,459.52L 81.92,459.52zM 361.011,431.002c-4.68,0.666-8.274,4.465-8.274,9.042c0,3.348, 2.007,6.267, 4.925,7.926c-2.918,1.536-4.925,6.943-4.925,10.322
		C 352.737,463.37, 357.018,469.76, 362.322,469.76l 47.964,0 c 5.335,0, 9.585-6.39, 9.585-11.459c0-3.533-1.997-7.649-5.038-9.134
		c 2.918-1.587, 5.038-5.059, 5.038-8.53c0-4.588-3.461-8.673-8.12-9.288l 61.082-149.504C 476.416,272.128, 481.28,261.202, 481.28,250.47L 481.28-11.52 
		c0-9.994, 0.266-20.48-10.24-20.48L 316.529-32 C 305.859-32, 307.2-21.514, 307.2-11.52L 307.2,254.72 c0,10.721, 1.997,17.265, 5.601,26.993L 361.011,431.002zM-163.84,469.76L-163.84,469.76L-163.84,469.76L-163.84,469.76z"  />
<glyph unicode="&#xe007;" d="M 418.908,248.054c-12.964,0-25.283-2.662-36.475-7.444l-31.498,53.975l 23.736,40.684c 3.226,5.55, 1.352,12.677-4.188,15.923
	c-2.437,1.413-5.151,3.973-7.721,3.553C 362.086,354.857, 361.431,357.12, 360.745,357.12l-46.561,0 c-6.42,0-11.633-8.94-11.633-15.36
	c0-6.431, 5.212-15.36, 11.633-15.36l 30.177,0 l-13.588-20.48L 194.806,305.92 l 27.156,51.2l 10.762,0 c 6.42,0, 11.633,3.809, 11.633,10.24s-5.212,10.24-11.633,10.24l-58.194,0 
	c-6.41,0-11.633-3.809-11.633-10.24s 5.212-10.24, 11.633-10.24l 20.47,0 l-65.423-114.33c-11.203,4.782-23.542,6.349-36.495,6.349
	C 41.677,249.139,0,206.909,0,155.505c0-51.415, 41.677-93.358, 93.092-93.358s 93.092,41.544, 93.092,92.959c0,30.106-14.356,56.74-36.557,73.769l 24.914,42.66
	l 71.414-122.429c 0.082-0.133, 0.184-0.256, 0.276-0.389c 0.092-0.174, 0.205-0.317, 0.307-0.461c 0.082-0.133, 0.143-0.236, 0.236-0.348
	c 0.287-0.379, 0.604-0.727, 0.922-1.065c 0.031-0.041, 0.072-0.082, 0.113-0.133c 0.102-0.102, 0.205-0.195, 0.317-0.287
	c 0.102-0.092, 0.215-0.184, 0.328-0.266c 0.287-0.246, 0.594-0.502, 0.901-0.717c 0.123-0.092, 0.246-0.164, 0.379-0.246
	c 0.102-0.061, 0.195-0.123, 0.297-0.195c 0.041-0.020, 0.072-0.051, 0.123-0.072c 0.010-0.020, 0.031-0.020, 0.041-0.041
	c 0.317-0.174, 0.645-0.328, 0.983-0.481c 0.041-0.031, 0.072-0.041, 0.113-0.051c 0.072-0.031, 0.154-0.092, 0.236-0.123
	c 0.020,0, 0.051-0.020, 0.082-0.020c 0.236-0.102, 0.502-0.184, 0.748-0.266c 0.236-0.082, 0.461-0.174, 0.696-0.225
	c 0.051-0.010, 0.102-0.010, 0.143-0.041c 0.092-0.010, 0.174-0.020, 0.256-0.041c 0.143-0.031, 0.297-0.051, 0.451-0.092
	c 0.696-0.133, 1.382-0.215, 2.089-0.215l0,0 c 0.010,0, 0.010-0.635, 0.010-0.635c 0.020,0, 0.031-0.604, 0.041-0.604l 70.564,0 
	c 5.755-40.96, 44.831-80.845, 92.293-80.845c 51.415,0, 93.092,41.994, 93.092,93.409C 512,206.060, 470.323,248.054, 418.908,248.054z M 162.908,154.962
	c0-38.574-31.252-69.827-69.816-69.827c-38.564,0-69.816,31.263-69.816,69.827c0,38.554, 31.252,69.806, 69.816,69.806
	c 8.673,0, 16.947-1.649, 24.607-4.547l-34.662-59.412c-3.236-5.54-1.352-12.667, 4.198-15.923c 1.843-1.065, 3.86-1.577, 5.847-1.577
	c 4.004,0, 7.895,2.068, 10.066,5.765l 34.673,59.453C 153.139,195.717, 162.908,176.476, 162.908,154.962z M 256,180.541L 194.806,285.44l 122.399,0 L 256,180.541z
	 M 337.449,269.476l 24.924-43.704C 343.101,210.985, 329.789,193.28, 326.615,162.56l-50.36,0 L 337.449,269.476z M 374.18,204.503L 398.664,162.56l-48.517,0 
	C 352.952,183.040, 361.677,194.048, 374.18,204.503z M 418.908,84.5c-34.58,0-63.232,26.86-68.772,57.58l 68.741,0 c 0.031,0, 0.031,0.604, 0.051,0.604
	c 0.696,0, 1.393,0.41, 2.079,0.543c 0.164,0.041, 0.307,0.215, 0.471,0.236c 0.635,0.154, 1.28,0.42, 1.935,0.676
	c 0.061,0.031, 0.133,0.133, 0.215,0.164c 0.379,0.174, 0.768,0.379, 1.157,0.594c 0.092,0.051, 0.174,0.154, 0.276,0.215
	c 0.348,0.225, 0.676,0.492, 1.034,0.748c 0.266,0.225, 0.573,0.44, 0.799,0.676c 0.287,0.256, 0.532,0.553, 0.778,0.85
	c 0.236,0.266, 0.502,0.553, 0.696,0.87c 0.205,0.276, 0.41,0.625, 0.584,0.942c 0.184,0.328, 0.369,0.635, 0.532,0.973
	c 0.154,0.348, 0.266,0.707, 0.399,1.065c 0.123,0.348, 0.236,0.696, 0.317,1.065c 0.092,0.369, 0.123,0.696, 0.174,1.065
	c 0.061,0.44, 0.113,0.819, 0.133,1.26c0,0.123, 0.031,0.236, 0.031,0.358c0,0.215-0.051,0.43-0.051,0.655
	c-0.041,0.44-0.072,0.84-0.143,1.27c-0.051,0.379-0.154,0.707-0.236,1.085c-0.102,0.358-0.195,0.707-0.338,1.065
	c-0.164,0.399-0.338,0.778-0.532,1.157c-0.102,0.205-0.174,0.41-0.276,0.604l-34.662,59.412c 7.68,2.898, 15.944,4.547, 24.607,4.547
	c 38.574,0, 69.827-31.57, 69.827-70.124C 488.745,116.081, 457.482,84.5, 418.908,84.5z"  />
<glyph unicode="&#xe008;" d="M 128.522-26.726c-3.482-6.103-13.394-7.066-22.139-2.048l-54.743,31.16c-8.704,4.966-12.954,13.947-9.462,20.040L 275.005,391.506
				c 33.485,54.129-83.558,49.357-112.292,33.423C 184.443,463.892, 253.696,476.754, 298.609,480l 13.066-0.85c 25.385-12.646, 61.788-31.621, 85.78-47.534
				c 17.623-27.679, 36.209-42.25, 62.525-42.179c 34.345-26.317-19.302-98.109-53.053-64.86c 0.184,16.425-47.473,58.921-80.855,23.91L 128.522-26.726z"  />
<glyph unicode="&#xe009;" d="M 261.233,450.386L 12.984,244.48L 71.68,244.48 l0-245.76 l 368.64,0 L 440.32,244.48 l 64.184,0 L 261.233,450.386z M 316.846,70.4L 200.632,70.4 l 24.371,109.681c-14.735,10.24-24.371,25.661-24.371,44.544
	c0,31.109, 26.020,55.695, 58.102,55.695c 32.102,0, 58.112-25.528, 58.112-56.637c0-18.893-9.636-33.229-24.361-43.438L 316.846,70.4z"  />
<glyph unicode="&#xe00a;" d="M 3.021,197.571c 4.198-32.512, 31.918-57.61, 65.587-57.61c 33.628,0, 61.327,25.098, 65.536,57.61L 3.021,197.571 zM 360.264,64.461c0-5.663-4.567-10.271-10.22-10.271L 159.007,54.19 c-5.612,0-10.24,4.608-10.24,10.271l0,0c0,5.622, 4.618,10.168, 10.24,10.168l 191.027,0 
		C 355.686,74.629, 360.264,70.083, 360.264,64.461L 360.264,64.461zM 149.883,48.957L 359.158,48.957L 359.158,19.395L 149.883,19.395zM 377.856,197.571c 4.188-32.512, 31.939-57.61, 65.556-57.61c 33.638,0, 61.348,25.098, 65.526,57.61L 377.856,197.571 zM 505.334,218.143l-53.688,73.953l 28.703,0 c 6.984,0, 12.605,5.724, 12.605,12.8c0,7.014-5.632,12.677-12.605,12.677L 328.305,317.573 
		c-9.062,24.996-30.935,43.776-57.692,48.456L 270.612,391.229 L 270.612,405.934 c0,7.096-5.693,12.759-12.749,12.759c-0.389,0-0.768-0.082-1.188-0.133
		c-0.379,0.051-0.788,0.133-1.188,0.133c-7.055,0-12.728-5.663-12.728-12.759l0-14.705 l0-25.18 c-26.757-4.68-48.62-23.46-57.672-48.456L 33.014,317.594 
		c-6.932,0-12.585-5.663-12.585-12.677c0-7.086, 5.652-12.8, 12.585-12.8l 27.392,0 l-53.699-73.953L0,218.163 l0-13.66 l 137.196,0 l0,13.66 L 130.458,218.163 L 76.78,292.096
		l 103.741,0 l 9.8,0 l 11.069,0 c0,2.888, 0.317,5.724, 0.748,8.438c 0.44,1.28, 0.737,2.58, 0.737,3.922c 4.69,19.763, 20.132,35.461, 39.885,40.274
		l0-97.403 l0-42.854 l-0.532,0 c-1.096-52.756-26.194-98.765-63.427-124.621l 74.404,0 l 3.482,0 l 6.973,0 l 70.932,0 c-37.243,25.856-62.321,71.864-63.478,124.621l-0.492,0 
		l0,42.854 l0,97.403 c 19.722-4.813, 35.215-20.511, 39.875-40.274c 0.041-1.341, 0.317-2.642, 0.768-3.922c 0.41-2.724, 0.666-5.55, 0.666-8.438l 11.141,0 
		l 9.789,0 l 102.38,0 l-53.699-73.953l-6.697,0 l0-13.66 L 512,204.483 l0,13.66 L 505.334,218.143 z M 63.13,218.143L 20.275,218.143 l 42.854,59.034L 63.13,218.143 z M 74.097,218.143l0,59.034 
		l 42.854-59.034L 74.097,218.143 z M 437.944,218.143l-42.875,0 l 42.875,59.034L 437.944,218.143 z M 448.86,218.143l0,59.034 l 42.906-59.034L 448.86,218.143 zM 81.316,335.37c0-6.953-5.693-12.687-12.698-12.687c-7.035,0-12.749,5.734-12.749,12.687c0,7.025, 5.714,12.759, 12.749,12.759
		C 75.622,348.14, 81.316,342.395, 81.316,335.37zM 456.141,336.046c0-7.076-5.693-12.687-12.718-12.687c-7.055,0-12.718,5.612-12.718,12.687c0,7.025, 5.663,12.749, 12.718,12.749
		C 450.447,348.795, 456.141,343.071, 456.141,336.046z"  />
<glyph unicode="&#xe00b;" d="M 145.787,75.52l 312.146,0 L 457.933,342.589 L 145.787,342.589 L 145.787,75.52 z M 304.394,316.006l 112.538-98.284l-28.355,0 l0-117.924 l-65.905,0 L 322.673,183.040 l-41.626,0 l0-83.241 L 218.624,99.799 L 218.624,217.723 
		l-29.082,0 L 304.394,316.006zM 111.104,408.484L 111.104,469.576L 41.738,469.576L 41.738-32L 111.104-32L 111.104,377.262L 471.818,377.262L 471.818,408.484 	z"  />
<glyph unicode="&#xe00c;" d="M 217.201,418.56C 87.849,418.56, 10.24,314.798, 10.24,262.912c0-51.886, 25.866-90.798, 77.609-90.798
		c 51.743,0, 77.619-12.964, 77.619-51.876c0-51.876, 38.799-90.788, 90.542-90.788c 168.161,0, 245.76,90.788, 245.76,181.576
		C 501.76,366.674, 372.388,418.56, 217.201,418.56L 217.201,418.56z M 184.863,366.674c 17.859,0, 32.338-14.52, 32.338-32.42
		c0-17.92-14.479-32.43-32.338-32.43s-32.338,14.52-32.338,32.43C 152.525,352.154, 167.004,366.674, 184.863,366.674z M 288.328,366.674
		c 17.859,0, 32.338-14.52, 32.338-32.42c0-17.92-14.479-32.43-32.338-32.43c-17.848,0-32.328,14.52-32.328,32.43
		C 256,352.154, 270.479,366.674, 288.328,366.674z M 391.813,314.798c 17.869,0, 32.348-14.51, 32.348-32.43c0-17.92-14.479-32.42-32.348-32.42
		c-17.859,0-32.328,14.51-32.328,32.42C 359.475,300.278, 373.955,314.798, 391.813,314.798z M 94.321,288.85c 17.859,0, 32.328-14.51, 32.328-32.41
		c0-17.92-14.479-32.43-32.328-32.43s-32.338,14.52-32.338,32.43C 61.983,274.34, 76.462,288.85, 94.321,288.85z M 256,159.15
		c 21.432,0, 38.799-17.408, 38.799-38.922c0-21.484-17.367-38.902-38.799-38.902s-38.799,17.418-38.799,38.902
		C 217.201,141.742, 234.568,159.15, 256,159.15L 256,159.15z"  />
<glyph unicode="&#xe00d;" d="M 256,418.56c-12.933,0-18.78-6.308-22.63-13.169L 72.499,102.574L 37.734,102.574 c-15.176,0-27.494-11.725-27.494-26.327
		c0-14.572, 12.319-26.317, 27.494-26.317l 50.125,0 l 336.302,0 l 50.125,0 c 15.165,0, 27.494,11.745, 27.494,26.317c0,14.612-12.319,26.327-27.494,26.327L 439.501,102.574 
		l-160.86,302.828C 274.78,412.252, 268.943,418.56, 256,418.56L 256,418.56z M 256,286.904l 90.542-184.33L 165.458,102.574 L 256,286.904z"  />
<glyph unicode="&#xe00e;" d="M 387.41,328.325c 3.41-53.299-22.446-90.665-22.446-90.665c 3.359,41.052-13.281,97.792-13.281,97.792c-14.213,2.785-36.925-0.205-36.925-0.205
	c 3.277-44.278-19.241-82.944-35.871-97.178c 8.223,49.101-4.864,86.252-4.864,86.252c-22.497,5.673-54.743,2.202-54.743,2.202
	c 7.004-52.234-21.811-90.665-21.811-90.665c 4.772,36.413-14.684,83.118-14.684,83.118c-16.517,1.075-42.834-4.301-42.834-4.301
	c 13.875-24.791, 2.796-79.278, 2.796-79.278c-7.567,44.554-33.004,70.83-33.004,70.83C-36.116,244.111, 2.304,158.536, 73.626,133.048
	c 67.287-24.003, 284.099-35.83, 381.102,6.257C 551.741,181.412, 483.43,299.735, 387.41,328.325z"  />
<glyph unicode="&#xe00f;" d="M 40.96,469.76l 57.344-462.643c 1.792-14.428, 14.326-28.877, 28.682-28.877l 258.028,0 c 14.346,0, 26.9,14.449, 28.662,28.877L 471.040,469.76
		L 40.96,469.76 z M 105.472,411.945l 301.046,0 l-13.435-115.661L 118.917,296.284 L 105.472,411.945z"  />
<glyph unicode="&#xe010;" d="M 408.801,192.389c 4.741-2.324, 10.516-2.284, 12.831,0.113c 2.345,2.386, 0.317,6.154-4.485,8.366l-83.743,38.789
	c-4.803,2.232-12.872,2.796-17.91,1.28l-29.952-8.98c-5.089-1.526-11.725-2.775-14.735-2.775c-3.011,0-5.519,4.239-5.519,9.441l0,91.331 
	c0,5.192, 4.332,9.452, 9.636,9.452l 217.18,0 c 5.325,0, 9.646,4.25, 9.646,9.452L 501.75,379.525 c0,5.202-4.168,10.67-9.236,12.155L 263.803,458.414
	c-5.069,1.485-13.384,1.485-18.452-0.020L 19.446,391.69C 14.387,390.205, 10.24,384.717, 10.24,379.525l0-30.659 c0-5.202, 4.332-9.452, 9.626-9.452l 214.323,0 
	c 5.304,0, 9.636-4.26, 9.636-9.452l0-91.382 c0-5.192-4.332-9.452-9.636-9.462l-3.891,0 c-5.304-0.010-12.739,2.959-16.548,6.584l-51.671,49.347
	c-3.82,3.635-11.254,6.595-16.558,6.595l-23.9,0 c-5.284,0-11.663,3.123-14.152,6.922c-2.468,3.809-8.223,6.902-12.78,6.902
	s-5.96-3.564-3.092-7.946l 0.451-0.686c 2.867-4.372, 2.877-11.571, 0.061-15.964l-25.846-40.182c-2.806-4.413-1.935-10.865, 2.007-14.356
	l 1.833-1.649c 3.942-3.482, 10.967-4.383, 15.667-1.956l 27.689,14.408c 4.71,2.437, 10.865,0.85, 13.722-3.523l 30.382-46.51
	c 2.877-4.383, 1.915-10.732-2.13-14.090l-13.896-11.602c-4.045-3.359-6.4-10.25-5.233-15.34l 18.012-78.356
	c 1.167-5.089, 6.339-8.192, 11.479-6.912l 12.524,3.092c 5.151,1.29, 8.387,6.472, 7.26,11.551l-12.196,52.992
	c-1.167,5.069, 2.058,10.373, 7.188,11.735l 30.792,8.253c 5.1,1.372, 13.629,2.468, 18.934,2.468l 3.891,0 c 5.304,0, 9.636-4.25, 9.636-9.421l0-93.972 
	c0-5.181-4.332-9.431-9.636-9.431L 19.866,38.072 c-5.294,0-9.626-4.239-9.626-9.462l0-30.638 C 10.24-7.281, 14.572-11.52, 19.866-11.52l 468.255,0 
	c 5.304,0, 9.626,4.239, 9.626,9.472l0,30.638 c0,5.222-4.332,9.462-9.626,9.462L 274.934,38.052 c-5.315,0-9.636,4.25-9.636,9.431l0,93.972 
	c0,5.171, 4.332,9.421, 9.636,9.421l 11.1,0 c 5.304,0, 13.773-1.096, 18.924-2.468l 30.792-8.253c 5.14-1.362, 8.376-6.656, 7.188-11.735
	l-12.165-52.992c-1.188-5.079, 2.068-10.26, 7.219-11.551l 12.544-3.092c 5.151-1.28, 10.281,1.823, 11.469,6.912l 18.033,78.356
	c 1.198,5.089-1.075,11.878-4.997,15.176c-3.912,3.256-7.363,10.199-7.67,15.38l-1.567,27.72c-0.317,5.181, 3.338,7.526, 8.090,5.192
	L 408.801,192.389z"  />
<glyph unicode="&#xe011;" d="M 10.24,414.659c0,0, 23.112-40.96, 23.112-67.133s-22.979-65.075-22.979-65.075c0-6.083, 4.106-8.151, 8.97-4.669l 75.602,54.231
	c 15.268-11.274, 45.179-26.235, 66.898-38.523l0-43.889 l 48.486,27.607c 15.565-3.533, 31.355-5.775, 48.261-5.775c 101.878,0, 184.586,66.099, 184.586,77.117
	c0,9.574-62.198,60.754-145.418,73.964L 205.23,469.76l0-51.067 c-43.377-12.022-87.747-36.956-110.275-53.596l-75.878,54.231C 14.223,422.82, 10.24,420.741, 10.24,414.659
	 M 360.97,335.135c-11.991,0-21.729,9.861-21.729,22.047s 9.738,22.036, 21.729,22.036c 12.012,0, 21.688-9.851, 21.688-22.036
	S 372.982,335.135, 360.97,335.135 M 501.76,143.309c0,6.093-3.983,8.172-8.837,4.669l-75.51-54.252c-22.528,16.64-66.447,41.574-109.885,53.586L 307.528,198.4 
	l-92.897-47.237c-83.251-13.199-145.623-64.399-145.623-73.974c0-11.018, 82.627-77.148, 184.494-77.148c 16.896,0, 33.065,2.294, 48.609,5.837L 350.956-21.76
	l0,43.878 c 21.688,12.319, 51.251,27.259, 66.447,38.574l 75.407-54.241c 4.905-3.533, 8.899-1.423, 8.899,4.618c0,0-23.020,38.902-23.020,65.096
	C 478.7,102.359, 501.76,143.309, 501.76,143.309 M 166.042,77.896c-12.001,0-21.699,9.841-21.699,22.047c0,12.165, 9.697,21.996, 21.699,21.996
	c 11.981,0, 21.709-9.841, 21.709-21.996C 187.75,87.736, 178.033,77.896, 166.042,77.896"  />
<glyph unicode="&#xe012;" d="M 492.022,108.186C 497.377,106.455, 501.76,109.64, 501.76,115.272l0,35.779 c0,5.632-3.963,12.595-8.796,15.483L 305.756,278.098
	C 300.923,280.975, 296.96,287.949, 296.96,293.571L 296.96,418.56 c0,5.632-1.72,14.51-3.83,19.743c0,0-11.172,27.73-30.72,30.822C 260.321,469.494, 258.202,469.76, 256.072,469.76
	C 256.051,469.76, 256.020,469.76, 256,469.76c-0.010,0-0.020,0-0.031,0c-2.468,0.020-4.905-0.287-7.301-0.737C 247.91,468.89, 247.194,468.705, 246.456,468.531
	c-1.147-0.297-2.263-0.635-3.359-1.044c-16.261-5.427-24.637-29.030-24.637-29.030C 216.576,433.142, 215.040,424.192, 215.040,418.56l0-124.989 
	c0-5.632-3.963-12.595-8.796-15.483L 19.036,166.533C 14.203,163.645, 10.24,156.682, 10.24,151.050l0-35.779 c0-5.632, 4.383-8.817, 9.738-7.076l 185.324,60.16
	C 210.657,170.086, 215.040,166.902, 215.040,161.27l0-97.618 c0-5.632-3.686-13.015-8.192-16.394l-24.576-18.452c-4.506-3.379-8.192-10.762-8.192-16.394L 174.080-11.52 
	c0-5.632, 4.434-8.97, 9.841-7.414l 62.208,17.869c 5.407,1.556, 14.275,1.556, 19.681,0l 62.269-17.869C 333.486-20.49, 337.92-17.152, 337.92-11.52l0,23.941 
	c0,5.632-3.686,13.015-8.192,16.394l-24.576,18.452c-4.495,3.379-8.192,10.762-8.192,16.394l0,97.618 c0,5.632, 4.383,8.817, 9.738,7.076L 492.022,108.186z"  />
<glyph unicode="&#xe013;" d="M 355.144,215.798c-14.725,11.612-36.823,20.89-66.294,27.822L 266.24,248.955l0,96.563 c 1.004-0.44, 2.099-0.768, 3.062-1.249
	C 288.492,334.551, 298.803,316.16, 300.216,295.68l 76.964,0 c-1.403,40.96-16.538,71.25-45.404,92.652C 312.596,402.555, 290.724,411.699, 266.24,416.307L 266.24,469.76 l-71.68,0 l0-51.814 
	c-33.147-4.096-59.433-14.766-78.735-32.113c-25.272-22.712-37.898-51.22-37.898-85.545c0-37.612, 12.913-65.26, 38.738-82.944
	c 14.459-10.025, 40.52-19.333, 77.896-27.955l0-104.612 c-13.629,3.758-24.31,9.943-31.836,18.883C 155.464,112.343, 150.6,121.6, 148.122,142.080L 71.68,142.080 
	c0-40.96, 14.449-70.349, 43.356-93.143c 20.869-16.445, 47.432-26.44, 79.524-30.771L 194.56-21.76 l 71.68,0 l0,39.25 c 34.13,4.086, 61.686,14.981, 82.555,32.809
	c 27.064,23.142, 40.602,52.224, 40.602,87.235C 389.396,171.684, 377.979,197.765, 355.144,215.798z M 170.68,275.364c-12.442,6.758-18.657,17.019-18.657,30.72
	c0,14.909, 6.308,26.593, 18.924,34.908c 6.656,4.393, 14.582,7.588, 23.613,9.697l0-84.214 C 183.45,269.711, 175.432,272.681, 170.68,275.364z
	 M 277.944,86.876c-3.553-1.229-7.516-2.243-11.704-3.133L 266.24,172.8 c 12.339-3.656, 22.077-7.639, 29.164-11.919c 11.182-6.932, 16.783-16.794, 16.783-29.44
	C 312.177,109.773, 300.759,94.853, 277.944,86.876z"  />
<glyph unicode="&#xe016;" d="M 419.84,439.040L 226.068,439.040 c-15.391,20.48-40.612,38.42-69.14,38.42c-46.868,0-84.859-36.618-84.859-83.487c0-46.879, 37.99-82.299, 84.859-82.299
		c 35.645,0, 66.14,24.965, 78.725,55.685l 28.211,0 l 20.449,20.46L 304.753,367.36l 12.749,0 l 20.439,20.46L 358.39,367.36l 12.739,0 l 20.449,20.46L 412.027,367.36L 419.84,367.36 l0-2.877 
		l-1.782-0.42l 40.346,39.547L 419.84,439.040z M 129.464,371.354c-13.558,0-24.566,11.008-24.566,24.586s 11.008,24.576, 24.566,24.576
		c 13.578,0, 24.586-10.998, 24.586-24.576S 143.043,371.354, 129.464,371.354zM 440.32,172.8l-5.663,0 l-62.915,113.92C 369.029,291.645, 362.189,295.68, 356.557,295.68L 165.683,295.68 c-5.632,0-12.472-4.035-15.186-8.96L 87.572,172.8L 81.92,172.8 
	c-11.264,0-20.48-9.216-20.48-20.48l0-102.4 c0-11.264, 9.216-20.48, 20.48-20.48l 20.48,0 l0-30.72 c0-16.896, 13.824-30.72, 30.72-30.72l 10.24,0 c 16.896,0, 30.72,13.824, 30.72,30.72l0,30.72 l 174.080,0 l0-30.72 c0-16.896, 13.824-30.72, 30.72-30.72l 10.24,0 c 16.896,0, 30.72,13.824, 30.72,30.72l0,30.72 
	l 20.48,0 c 11.264,0, 20.48,9.216, 20.48,20.48L 460.8,152.32 C 460.8,163.584, 451.584,172.8, 440.32,172.8z M 117.76,90.88C 103.619,90.88, 92.16,102.339, 92.16,116.48s 11.459,25.6, 25.6,25.6s 25.6-11.459, 25.6-25.6
	S 131.901,90.88, 117.76,90.88z M 138.24,172.8l 41.503,82.995C 182.262,260.844, 188.928,264.96, 194.56,264.96l 133.12,0 c 5.632,0, 12.298-4.116, 14.817-9.165L 384,172.8L 138.24,172.8 z M 404.48,90.88
	c-14.141,0-25.6,11.459-25.6,25.6s 11.459,25.6, 25.6,25.6s 25.6-11.459, 25.6-25.6S 418.621,90.88, 404.48,90.88z"  />
<glyph unicode="&#xe017;" d="M 489.298,358.318c-7.045,5.55-25.938,10.004-40.079,13.322L 430.080,374.2L 430.080,420.465 c0-0.205, 9.339,0.379, 9.8,0.154
	C 449.065,415.959, 462.295,408.32, 462.981,398.080l 36.905,0 c-0.686,20.48-16.241,33.403-30.085,43.663C 460.616,448.553, 450.56,452.188, 430.080,454.39L 430.080,480 l-20.48,0 l0-24.822 
	c-20.48-1.966-27.095-7.066-36.342-15.391C 361.165,428.902, 355.779,415.242, 355.779,398.797c0-18.022, 5.151-31.263, 17.531-39.741
	C 380.232,354.253, 389.12,349.788, 409.6,345.651l0-50.125 c-10.24,1.812-10.26,1.352-13.875,5.642C 392.243,305.326, 391.291,316.16, 390.103,316.16L 353.485,316.16 
	c0-20.48, 5.54-30.29, 19.405-41.216C 382.884,267.069, 389.12,265.677, 409.6,263.608L 409.6,244.48 l 20.48,0 l0,18.801 c 20.48,1.976, 37.878,7.188, 47.882,15.729
	c 12.984,11.090, 23.603,25.027, 23.603,41.8C 501.555,337.172, 500.244,349.665, 489.298,358.318z M 399.544,386.847
	c-5.96,3.246-8.253,8.161-8.253,14.725c0,7.148, 1.976,12.739, 8.018,16.732C 402.493,420.403, 399.36,421.929, 409.6,422.943l0-40.346 
	C 399.36,384.154, 401.797,385.567, 399.544,386.847z M 444.017,296.53C 442.296,295.936, 430.080,295.465, 430.080,295.045l0,42.67 c 20.48-1.761, 18.903-3.656, 22.303-5.714
	c 5.335-3.318, 8.018-8.049, 8.018-14.1C 460.401,307.497, 454.922,300.36, 444.017,296.53zM 394.445,172.8l-5.663,0 l-62.915,113.92C 323.154,291.645, 316.314,295.68, 310.682,295.68L 119.798,295.68 c-5.632,0-12.472-4.035-15.186-8.96L 41.697,172.8L 36.045,172.8 
	C 24.771,172.8, 10.24,163.584, 10.24,152.32l0-102.4 c0-11.264, 14.531-20.48, 25.805-20.48L 51.2,29.44 l0-30.72 c0-16.896, 19.149-30.72, 36.045-30.72l 10.24,0 c 16.896,0, 25.395,13.824, 25.395,30.72l0,30.72 l 174.080,0 l0-30.72 c0-16.896, 19.139-30.72, 36.045-30.72
	l 10.24,0 c 16.896,0, 25.395,13.824, 25.395,30.72l0,30.72 l 25.805,0 c 11.264,0, 15.155,9.216, 15.155,20.48L 409.6,152.32 C 409.6,163.584, 405.699,172.8, 394.445,172.8z M 71.885,90.88c-14.141,0-25.6,11.459-25.6,25.6
	S 57.743,142.080, 71.885,142.080s 25.6-11.459, 25.6-25.6S 86.016,90.88, 71.885,90.88z M 92.365,172.8l 41.503,82.995C 136.376,260.844, 143.053,264.96, 148.685,264.96l 133.12,0 
	c 5.632,0, 12.298-4.116, 14.817-9.165L 338.125,172.8L 92.365,172.8 z M 358.605,90.88c-14.141,0-25.6,11.459-25.6,25.6s 11.459,25.6, 25.6,25.6s 25.6-11.459, 25.6-25.6
	S 372.736,90.88, 358.605,90.88z"  />
<glyph unicode="&#xe018;" d="M 378.88,469.76c-5.632,0-10.24-4.608-10.24-10.24l0-143.36 c0-5.632-4.608-10.24-10.24-10.24L 153.6,305.92 c-5.632,0-10.24,4.608-10.24,10.24L 143.36,459.52 c0,5.632-4.608,10.24-10.24,10.24L 40.96,469.76 C 35.328,469.76, 30.72,465.152, 30.72,459.52l0-471.040 
	c0-5.632, 4.608-10.24, 10.24-10.24l 92.16,0 c 5.632,0, 10.24,4.608, 10.24,10.24L 143.36,152.32 c0,5.632, 4.608,10.24, 10.24,10.24l 204.8,0 c 5.632,0, 10.24-4.608, 10.24-10.24l0-163.84 c0-5.632, 4.608-10.24, 10.24-10.24l 92.16,0 c 5.632,0, 10.24,4.608, 10.24,10.24L 481.28,459.52 
	c0,5.632-4.608,10.24-10.24,10.24L 378.88,469.76 z"  />
<glyph unicode="&#xe019;" d="M 432.466,220.826c 3.553,4.372, 10.834,9.4, 16.169,11.162l 43.971,17.951C 497.644,252.467, 501.76,259.144, 501.76,264.765L 501.76,390.195 
	c0,5.632-4.311,11.878-9.574,13.875c0,0-91.986,34.97-153.61,34.97c-57.344,0-136.622-30.239-136.622-30.239
	c-5.263-2.007-14.141-4.209-19.732-4.905L 20.408,386.509C 14.817,385.823, 10.24,380.652, 10.24,375.020l0-85.135 c0-5.632, 4.526-11.090, 10.066-12.124l 161.741-26.102
	c 5.55-0.922, 14.387-3.379, 19.62-5.458l 110.766-28.334c 5.56-0.84, 11.633-5.878, 13.466-11.213l 65.116-188.017
	c 1.843-5.335, 7.721-8.212, 13.056-6.42l 68.844,23.153c 5.335,1.792, 8.202,7.608, 6.359,12.943l-45.199,130.386
	c-1.843,5.335-3.4,9.994-3.471,10.373c0,0,0,0-0.082,0.389C 425.103,211.722, 432.466,220.826, 432.466,220.826z M 353.884,288.502
	c-25.702,0-46.459,20.48-46.459,45.722c0,25.252, 20.756,45.722, 46.459,45.722c 25.62,0, 46.438-20.48, 46.438-45.722
	C 400.323,308.982, 379.505,288.502, 353.884,288.502z"  />
<glyph unicode="&#xe01a;" d="M 183.931,20.49c 3.83-4.127, 3.604-10.66-0.512-14.5l-22.241-20.797c-4.116-3.84-10.619-3.615-14.449,0.522L 17.203,125.307
			c-3.83,4.127-3.594,10.65, 0.522,14.5l 22.272,20.767c 4.116,3.85, 10.619,3.615, 14.449-0.522L 183.931,20.49zM 349.204,283.146c 3.83-4.127, 3.594-10.66-0.522-14.5L 208.701,137.882c-4.116-3.84-10.619-3.615-14.449,0.522l-33.413,36.055
			c-3.83,4.127-3.594,10.66, 0.522,14.5l 139.95,130.765c 4.106,3.84, 10.609,3.615, 14.438-0.522L 349.204,283.146zM 231.557,65.004c 3.83-4.127, 3.594-10.65-0.522-14.5l-22.272-20.787c-4.116-3.85-10.619-3.615-14.449,0.522L 64.86,169.83
			c-3.83,4.127-3.604,10.66, 0.512,14.5l 22.231,20.777c 4.116,3.84, 10.619,3.615, 14.449-0.522L 231.557,65.004zM 447.242,278.139c 3.83-4.127, 3.594-10.66-0.532-14.5l-22.262-20.787c-4.116-3.84-10.619-3.615-14.459,0.512L 280.515,382.925
			c-3.84,4.127-3.604,10.65, 0.512,14.5l 22.323,20.838c 4.106,3.84, 10.609,3.615, 14.438-0.522L 447.242,278.139zM 494.797,322.58c 3.83-4.127, 3.594-10.66-0.522-14.51l-22.221-20.777c-4.106-3.85-10.609-3.615-14.438,0.512L 328.161,427.428
			c-3.83,4.127-3.604,10.66, 0.512,14.51l 22.241,20.818c 4.106,3.85, 10.598,3.625, 14.428-0.512L 494.797,322.58z"  />
<glyph unicode="&#xe01b;" d="M 409.6,49.92A40.96,40.96 180 1 1 491.52,49.920000000000016A40.96,40.96 180 1 1 409.6,49.920000000000016zM 112.64,49.92A40.96,40.96 180 1 1 194.56,49.920000000000016A40.96,40.96 180 1 1 112.64,49.920000000000016zM 481.28,142.080L 161.495,142.080 l 6.83,11.080c 2.929,4.751, 3.789,10.496, 2.386,15.903l-6.666,25.661l 296.786,15.421C 472.084,210.719, 481.28,220.416, 481.28,231.68
		L 481.28,367.36 c0,11.264-9.216,20.48-20.48,20.48L 113.859,387.84 l-4.004,15.391C 107.51,412.262, 99.359,418.56, 90.030,418.56L 20.48,418.56 C 9.175,418.56,0,409.385,0,398.080s 9.175-20.48, 20.48-20.48l 53.719,0 l 54.682-210.381
		l-21.504-34.867c-3.891-6.318-4.065-14.254-0.44-20.726C 110.541,105.144, 117.381,101.12, 124.805,101.12L 481.28,101.12 c 11.305,0, 20.48,9.175, 20.48,20.48S 492.585,142.080, 481.28,142.080z"  />
<glyph unicode="&#xe01c;" d="M 363.356,326.052c-2.54,0-4.956,1.71-4.956,4.209l0,63.283 C 358.4,396.042, 357.028,398.080, 354.478,398.080L 157.512,398.080 C 154.962,398.080, 153.6,396.042, 153.6,393.544
			l0-63.283 C 153.6,327.762, 150.845,326.4, 148.285,326.4L 14.838,326.4 C 12.319,326.4, 10.24,323.666, 10.24,321.198l0-70.349 C 10.24,248.371, 12.319,244.48, 14.838,244.48l 214.897,0 
			C 232.284,244.48, 235.52,248.371, 235.52,250.849l0,15.002 C 235.52,268.349, 236.462,275.2, 239.002,275.2l 34.007,0 C 275.548,275.2, 276.48,268.349, 276.48,265.851l0-15.002 
			C 276.48,248.371, 279.716,244.48, 282.245,244.48l 214.886,0 C 499.692,244.48, 501.76,248.371, 501.76,250.849l0,70.349 C 501.76,323.676, 499.692,326.4, 497.142,326.4L 363.704,326.4 L 363.356,326.052z
			 M 185.272,326.4C 182.733,326.4, 184.32,327.762, 184.32,330.25l0,35.973 C 184.32,368.732, 182.733,367.36, 185.272,367.36l 141.455,0 C 329.267,367.36, 327.68,368.732, 327.68,366.223l0-35.973 
			C 327.68,327.762, 329.267,326.4, 326.728,326.4L 185.272,326.4 zM 277.043,175.749c0-2.478-1.495-2.949-4.035-2.949L 239.002,172.8 C 236.462,172.8, 235.52,171.704, 235.52,174.182l0,50.565 
			C 235.52,227.226, 232.284,234.24, 229.745,234.24L 14.838,234.24 C 12.319,234.24, 10.24,227.226, 10.24,224.748l0-149.801 C 10.24,72.458, 12.319,70.4, 14.838,70.4l 482.304,0 
			C 499.692,70.4, 501.76,72.458, 501.76,74.936L 501.76,224.748 C 501.76,227.226, 499.692,234.24, 497.142,234.24L 282.245,234.24 C 279.716,234.24, 276.48,227.226, 276.48,224.748l0-50.565 L 277.043,175.749z
			"  />
<glyph unicode="&#xe01d;" d="M 402.964,305.92L 106.496,305.92 C 53.555,305.92, 10.24,268.646, 10.24,218.88c0-49.766, 43.315-87.040, 96.256-87.040l 296.468,0 c 52.92,0, 96.236,37.284, 96.236,87.040
	C 499.2,268.646, 455.885,305.92, 402.964,305.92z M 402.995,152.32L 256,152.32 L 256,285.44 l 146.995,0 c 39.035,0, 71.004-29.85, 71.004-66.56S 442.040,152.32, 402.995,152.32z"  />
<glyph unicode="&#xe01e;" d="M 317.44,223.98c-33.884,0-61.399-27.494-61.399-61.42c0-33.956, 27.525-61.44, 61.399-61.44c 33.894,0, 61.42,27.484, 61.42,61.44
		C 378.86,196.475, 351.334,223.98, 317.44,223.98zM 440.33,346.911L 389.734,448.973C 385.649,461.076, 374.19,469.76, 360.663,469.76l-84.388,0 c-13.763,0-25.242-8.929-29.225-21.248L 194.632,346.88L 71.67,346.88 
		C 37.796,346.88, 10.24,319.355, 10.24,285.43L 10.24-21.76 l 491.52,0 L 501.76,285.43 C 501.76,319.355, 474.225,346.911, 440.33,346.911z M 102.4,223.98c-16.998,0-30.73,13.742-30.73,30.7
		c0,17.019, 13.742,30.751, 30.73,30.751s 30.71-13.732, 30.71-30.751C 133.11,237.722, 119.398,223.98, 102.4,223.98z M 317.44,39.619
		c-67.84,0-122.89,55.060-122.89,122.941c0,67.85, 55.040,122.87, 122.89,122.87c 67.85,0, 122.89-55.009, 122.89-122.87
		C 440.33,94.679, 385.29,39.619, 317.44,39.619z"  />
<glyph unicode="&#xe01f;" d="M 126.29,254.72L 153.6,254.72 l0-163.84 l 40.96,0 L 194.56,234.24 l 40.96,0 l0-143.36 l 40.96,0 L 276.48,234.24 l 40.96,0 l0-143.36 l 40.96,0 L 358.4,254.72 l 27.3,0 C 393.236,254.72, 399.36,262.257, 399.36,269.046c0,4.106-2.263,8.735-5.683,10.967
		l 0.020,0.532l-0.215,0.379c-0.123,0.072, 1.475,0.266, 1.372,0.338L 266.24,347.505l0,19.374 c 20.48-10.844, 40.458,7.834, 71.68-3.4L 337.92,406.272 
		c-31.242,11.223-51.2-7.444-71.68,3.4L 266.24,412.416 C 266.24,415.805, 259.779,418.56, 256,418.56s-10.24-2.755-10.24-6.144l0-64.911 l-128.604-66.109
		c-0.123-0.061, 2.898-0.133, 2.775-0.215L 122.88,281.068l0-0.020 c-10.24-2.232-7.946-7.885-7.946-11.991C 114.924,262.257, 118.753,254.72, 126.29,254.72zM 143.36,80.64L 112.64,49.92L 399.36,49.92L 368.64,80.64 	zM 368.64,244.48l0-153.6 l 9.062,0 l 4.004-5.663l 27.3-25.59L 418.662,49.92L 501.76,49.92 L 501.76,244.48 L 368.64,244.48 z M 430.080,121.6l-30.72,0 l0,30.72 l 30.72,0 L 430.080,121.6 z M 430.080,183.040l-30.72,0 l0,30.72 l 30.72,0 L 430.080,183.040 z M 471.040,121.6l-20.48,0 l0,30.72 l 20.48,0 L 471.040,121.6 z
		 M 471.040,183.040l-20.48,0 l0,30.72 l 20.48,0 L 471.040,183.040 zM 134.287,90.88L 143.36,90.88 L 143.36,244.48 L 10.24,244.48 l0-194.56 l 83.087,0 l 9.646,8.684l 27.31,26.624L 134.287,90.88z M 61.44,121.6L 40.96,121.6 l0,30.72 l 20.48,0 L 61.44,121.6 L 61.44,121.6z M 61.44,183.040L 40.96,183.040 l0,30.72 l 20.48,0 L 61.44,183.040 L 61.44,183.040z M 112.64,121.6L 81.92,121.6 l0,30.72 l 30.72,0 
		L 112.64,121.6 z M 112.64,183.040L 81.92,183.040 l0,30.72 l 30.72,0 L 112.64,183.040 z"  />
<glyph unicode="&#xe020;" d="M 296.95,433.736C 222.218,433.736, 163.84,374.559, 163.84,301.548l0-211.005 L 163.84-11.52 l 51.2,0 L 215.040,90.88 l 163.84,0 l0-102.4 l 51.2,0 l0,102.062 L 430.080,301.548 C 430.080,374.559, 371.712,433.736, 296.95,433.736z
		M 40.96,459.52l 75.407-122.88l 7.864,0 C 129.004,387.84, 163.84,429.865, 215.040,448.84L 215.040,459.52 L 40.96,459.52 z"  />
<glyph unicode="&#xe021;" d="M 501.76,305.92c0,5.632-4.608,10.24-10.24,10.24L 358.4,316.16 c-5.632,0-10.24,4.608-10.24,10.24L 348.16,459.52 c0,5.632-4.608,10.24-10.24,10.24L 174.080,469.76 c-5.632,0-10.24-4.608-10.24-10.24l0-133.12 c0-5.632-4.608-10.24-10.24-10.24L 20.48,316.16 
	c-5.632,0-10.24-4.608-10.24-10.24l0-163.84 c0-5.632, 4.608-10.24, 10.24-10.24l 133.12,0 c 5.632,0, 10.24-4.608, 10.24-10.24l0-133.12 c0-5.632, 4.608-10.24, 10.24-10.24l 163.84,0 c 5.632,0, 10.24,4.608, 10.24,10.24L 348.16,121.6 c0,5.632, 4.608,10.24, 10.24,10.24l 133.12,0 
	c 5.632,0, 10.24,4.608, 10.24,10.24L 501.76,305.92 z"  />
<glyph unicode="&#xe022;" d="M 30.116,398.080c-30.116,0-15.053-7.977,0-20.214L 256,205.947l 225.884,171.387c 15.073,12.237, 30.116,20.746,0,20.746
		L 240.937,398.080 L 30.116,398.080 z M0,357.673l0-253.215 c0-14.899, 15.237-34.058, 27.29-34.058l 457.421,0 c 12.063,0, 27.29,19.159, 27.29,34.058l0,253.215 l-256-195.328
		L0,357.673z"  />
<glyph unicode="&#xe023;" d="M 112.64,60.16c0-5.632, 4.608-10.24, 10.24-10.24l 348.16,0 c 5.632,0, 10.24,4.608, 10.24,10.24L 481.28,357.12 c0,5.632-4.608,10.24-10.24,10.24L 122.88,367.36 c-5.632,0-10.24-4.608-10.24-10.24L 112.64,60.16 z M 289.751,319.939
			c 4.28,3.666, 11.254,3.625, 15.493-0.072l 113.787-99.369C 423.27,216.791, 422.134,213.76, 416.502,213.76L 409.6,213.76 c-5.632,0-10.24-4.608-10.24-10.24l0-112.64 
			c0-5.632-4.608-10.24-10.24-10.24l-51.2,0 c-5.632,0-10.24,4.608-10.24,10.24l0,81.92 c0,5.632-4.608,10.24-10.24,10.24l-40.96,0 c-5.632,0-10.24-4.608-10.24-10.24l0-81.92 c0-5.632-4.608-10.24-10.24-10.24l-51.2,0 c-5.632,0-10.24,4.608-10.24,10.24
			L 194.56,203.52 c0,5.632-4.608,10.24-10.24,10.24l-8.417,0 c-5.632,0-6.738,2.99-2.458,6.656L 289.751,319.939zM 102.4,418.56C 96.768,418.56, 92.16,423.168, 92.16,428.8L 92.16,459.52 c0,5.632-4.608,10.24-10.24,10.24L 40.96,469.76 C 35.328,469.76, 30.72,465.152, 30.72,459.52l0-471.040 c0-5.632, 4.608-10.24, 10.24-10.24l 40.96,0 c 5.632,0, 10.24,4.608, 10.24,10.24L 92.16,377.6 
			c0,5.632, 4.608,10.24, 10.24,10.24l 368.64,0 c 5.632,0, 10.24,4.608, 10.24,10.24L 481.28,408.32 c0,5.632-4.608,10.24-10.24,10.24L 102.4,418.56 z"  />
<glyph unicode="&#xe024;" d="M 281.692,381.911c 6.195-5.673, 12.063-11.028, 16.466-17.756l 2.447-3.738l 4.045,1.925c 11.244,5.376, 18.913,13.978, 26.327,22.292
		c 5.591,6.267, 10.875,12.196, 17.5,16.65l 4.116,2.775l-2.652,4.209c-11.54,18.309-26.593,33.546-44.728,45.302l-3.799,2.468l-2.908-3.482
		c-11.407-13.67-24.033-26.45-37.519-37.98l-2.959-2.54l 1.659-3.533C 265.011,397.169, 273.49,389.417, 281.692,381.911zM 347.546,304.425c 38.492,0, 70.011,15.729, 88.75,44.298l 2.232,3.4l-2.796,2.949c-3.256,3.42-6.369,6.994-9.482,10.568
		c-9.288,10.66-18.903,21.678-32.44,28.989l-4.721,2.55L 386.765,392.325c-15.831-32.973-46.479-39.895-69.396-39.895
		c-40.172,0-88.453,22.415-109.916,51.046l-16.896,22.538l 7.895-27.044C 213.125,348.6, 282.808,304.425, 347.546,304.425zM 214.712,216.023c 15.995,30.433, 16.66,66.068, 1.69,98.376c-14.766,31.887-42.097,54.364-73.093,60.16
		c-6.564,1.229-13.036,1.833-19.241,1.833c-37.642,0-62.28-21.975-86.098-43.213c-8.673-7.731-16.865-15.084-25.61-21.32l-6.113-4.465
		l 6.287-4.311c 2.007-1.3, 7.055-8.97, 11.121-14.807C 36.557,269.742, 47.309,254.72, 58.737,254.72c0,0, 0.010,0, 0.010,0
		c 4.024,0, 7.782,4.772, 20.879,19.497c 5.519,6.195, 11.766,14.070, 15.114,16.722c 14.971,11.889, 35.492,28.17, 57.907,28.17
		c 3.021,0, 6.062-0.297, 9.021-0.891c 10.373-2.079, 16.64-6.881, 19.149-14.694c 5.14-16.005-6.666-40.54-16.794-51.374
		c-5.11-5.478-10.701-9.421-16.63-13.599c-8.499-5.99-17.285-12.196-24.545-23.101l-2.355-3.543l 3.062-2.97
		c 4.424-4.28, 8.817-8.581, 13.21-12.882c 11.366-11.131, 23.122-22.641, 35.185-33.516l 4.045-3.645l 3.4,4.26
		c 7.649,9.595, 15.718,19.804, 23.634,30.239c 2.13-3.164, 4.393-6.4, 6.717-9.718c 17.459-24.965, 37.253-53.258, 24.34-90.235
		c-9.615-27.556-42.086-45.496-78.664-42.865c-43.254,3.031-81.756,39.956-117.729,112.886c-2.243,4.557-4.086,9.667-5.868,14.612
		c-4.168,11.571-8.489,23.532-18.545,30.966l-10.086,7.455l 1.987-12.38c 10.557-65.864, 41.503-129.423, 82.79-170.025
		c 24.975-24.596, 65.956-40.489, 104.397-40.489c 44.411,0, 91.996,23.081, 92.324,87.859c 0.287,60.672-37.181,100.076-67.297,131.738L 214.712,216.023zM 494.971,271.657c-11.93,22.19-56.781,38.369-79.278,33.444c-34.079-7.434-57.969-26.716-79.053-43.735
		c-21.576-17.428-40.223-32.471-65.106-32.471c-7.475,0-15.124,1.331-23.378,4.055l-13.107,4.332l 7.107-11.827
		c 16.323-27.167, 35.379-40.376, 58.255-40.376c 18.586,0.010, 37.612,8.919, 56.463,20.46l 4.229-12.534c 9.574-28.355, 51.251-70.41, 89.19-70.41
		c 0.758,0, 1.516,0.020, 2.273,0.061c 16.558,0.737, 30.382,10.066, 39.987,27.003C 512.236,184.34, 510.013,243.722, 494.971,271.657z M 382.935,222.648
		c 27.976,19.016, 57.364,38.543, 81.439,34.294c 10.476-18.207, 6.195-33.884, 0.625-43.96c-10.629-19.18-33.915-32.584-56.648-32.584
		c-10.711,0-26.081,3.052-38.492,17.572l-8.735,10.209C 368.425,212.797, 375.706,217.743, 382.935,222.648z"  />
<glyph unicode="&#xe025;" d="M 225.28,460.216L 225.28,346.88 l-20.48,0 L 204.8,459.52 c0,5.652-4.588,10.24-10.24,10.24s-10.24-4.588-10.24-10.24l0-112.64 l-20.48,0 L 163.84,459.889 c0,13.179-20.48,12.728-20.48,0.338L 143.36,346.88 l-20.48,0 L 122.88,459.418 
		c0,13.957-20.48,13.445-20.48,0.553l0-148.193 c0-21.371, 20.48-35.461, 40.96-35.461L 143.36,8.96 c0-40.96, 61.44-40.96, 61.44,0L 204.8,276.306 c 20.48,0, 40.96,17.019, 40.96,33.044L 245.76,459.889 
		C 245.76,472.945, 225.28,472.443, 225.28,460.216zM 317.44,428.8l0-256 l 20.48,0 l0-163.84 c0-40.96, 71.68-40.96, 71.68,0L 409.6,428.8 C 409.6,480, 317.44,480, 317.44,428.8z"  />
<glyph unicode="&#xe026;" d="M 337.029,152.32l-60.508,166.267c-0.225,0.522-0.348,1.106-0.348,1.71c0,2.427, 2.038,4.393, 4.577,4.393
		c 2.161,0, 3.973-1.444, 4.454-3.369L 326.339,213.76c 2.734-6.154, 13.978-10.24, 21.371-10.24c 9.882,0, 10.906,19.405, 10.691,20.48l-41.134,106.056
		C 313.692,353.823, 289.69,377.6, 262.298,377.6L 208.691,377.6 c-27.392,0-53.176-23.777-56.75-47.544L 112.65,224c-0.891-2.038,0-20.48, 10.68-20.48
		c 8.305,0, 19.354,2.898, 21.371,10.24l 39.68,108.022c 0.635,1.7, 2.335,2.908, 4.311,2.908c 2.529,0, 4.567-1.966, 4.567-4.383
		c0-0.553-0.092-1.085-0.287-1.567L 134.021,152.32c-0.113-0.492,0-9.738,0-10.24c0-3.543, 8.55-10.24, 12.268-10.24L 184.32,131.84 l0-134.093 
		C 184.32-12.902, 193.7-21.76, 204.8-21.76c 11.1,0, 20.48,8.868, 20.48,19.507L 225.28,131.932 c0,2.898, 20.48,2.806, 20.48-0.092l0-133.12 c0-10.65, 9.39-20.48, 20.48-20.48c 11.121,0, 20.48,9.841, 20.48,20.48L 286.72,131.84 
		l 39.619,0 c 3.707,0, 10.691,6.697, 10.691,10.24C 337.029,142.899, 337.326,151.613, 337.029,152.32zM 192,432.64A42.24,42.24 180 1 1 276.48,432.64A42.24,42.24 180 1 1 192,432.64z"  />
<glyph unicode="&#xe027;" d="M 184.32-1.28c0-12.626, 7.864-20.48, 20.48-20.48c 12.646,0, 20.48,7.854, 20.48,20.48L 225.28,193.28 l 20.48,0 l0-194.56 c0-12.605, 7.854-20.48, 20.48-20.48c 12.626,0, 20.48,7.854, 20.48,20.48L 286.72,326.4 l 10.24,0 l0-120.975 
		c0-24.525, 30.781-24.525, 30.72,0L 327.68,329.871 C 327.68,356.966, 308.163,377.6, 276.48,377.6l-81.92,0 c-28.877,0-51.2-17.603-51.2-46.971L 143.36,203.52 c0-20.48, 30.72-20.48, 30.72,0L 174.080,326.4 l 10.24,0 L 184.32-1.28 zM 192,432.64A42.24,42.24 180 1 1 276.48,432.64A42.24,42.24 180 1 1 192,432.64z"  />
<glyph unicode="&#xe028;" d="M 470.303,183.562l-1.116,3.011c-3.502,9.441-7.834,21.176-18.934,27.822c-7.731,4.628-16.722,6.236-24.648,7.649
	c-4.076,0.727-7.936,1.434-11.244,2.437c-0.973,0.287-1.935,0.655-2.908,1.024c-0.154,0.051-0.307,0.092-0.461,0.154
	c-31.826,25.559-96.266,26.255-136.407,62.403C 217.057,339.835, 170.885,391.895, 118.958,469.76L 54.077,417.843c-4.506-3.604-13.107-6.492-13.107-19.466
	c0-6.482, 6.595-7.475, 14.367-5.069l 36.598,11.561L 194.56,262.083c0-25.958,0-53.688,0-77.885c0-18.022-0.297-34.427, 14.991-43.745L 171.008-21.76l 25.958,0 
	l 24.392,77.025L 245.76,93.358l0-38.943 L 245.76-21.76 l 30.72,0 L 276.48,106.322 c0,0-0.358,25.958, 25.6,25.958s 25.6-25.958, 25.6-25.958l0-90.839 L 327.68-21.76 l 20.48,0 L 348.16,80.64 l 56.484-102.4l 25.958,0 
	C 417.618,19.2, 399.36,15.483, 399.36,54.415l0,25.958 c0,27.218, 30.72,51.917, 30.72,77.875l0,25.938 c0,6.164-0.799,11.622-2.202,16.558
	c 4.526-0.922, 8.684-2.038, 11.848-3.942c 4.905-2.939, 7.619-10.271, 10.24-17.357l 1.188-3.195c 2.017-5.274, 7.926-7.926, 13.21-5.919l 0.010,0.010
	C 469.668,172.37, 472.32,178.278, 470.303,183.562z"  />
<glyph unicode="&#xe029;" d="M 189.235,286.72c 23.859,4.055, 41.554,25.784, 44.247,51.743c 2.734,26.399, 8.899,132.485-30.925,125.737
		C 99.256,446.679, 106.506,272.691, 189.235,286.72zM 325.151,286.72c 82.708-14.029, 89.958,159.959-13.343,177.49c-39.813,6.748-33.659-99.338-30.935-125.737
		C 283.576,312.504, 301.292,290.775, 325.151,286.72zM 146.801,204.749c0,13.804-4.925,26.317-12.861,35.42c-13.056,17.060-54.559,51.558-64.748,42.721C 47.923,264.397, 48.609,218.88, 61.42,185.805
		c 6.584-18.391, 22.487-31.324, 41.073-31.324C 126.956,154.481, 146.801,176.988, 146.801,204.749zM 445.164,282.89c-10.168,8.837-51.671-25.661-64.727-42.721c-7.936-9.103-12.872-21.617-12.872-35.42
		c0-27.761, 19.866-50.268, 44.308-50.268c 18.596,0, 34.509,12.933, 41.093,31.324C 465.746,218.88, 466.452,264.397, 445.164,282.89zM 361.851,126.454c-37.642,18.77-36.475,54.917-45.036,87.9c-6.81,26.307-30.925,45.763-59.628,45.763
		c-28.088,0-51.784-18.647-59.177-44.155c-9.165-31.56-3.645-68.301-44.677-89.262c-33.331-10.865-46.828-26.716-46.828-64.205
		c0-30.454, 26.143-63.058, 59.884-67.113c 37.642-5.673, 67.011,1.741, 90.798,15.299c 23.788-13.558, 53.135-20.961, 90.839-15.299
		c 33.72,4.055, 59.873,36.536, 59.873,67.113C 407.89,100.803, 395.254,115.077, 361.851,126.454z M 317.44,80.64l-39.025,0 l 0.051-40.96l-42.557,0 l 0.061,40.96L 194.56,80.64 l0,40.96 
		l 41.421,0 l-0.061,40.96l 42.557,0 l-0.051-40.96L 317.44,121.6 L 317.44,80.64 z"  />
<glyph unicode="&#xe02a;" d="M 219.484,401.265L 194.56,367.36l-58.204,0 c 7.178-20.48, 30.679-39.793, 63.498-33.382c 9.728,0.655, 42.547,5.868, 56.146,2.662
		c 18.104-4.342, 10.557-4.362, 43.018-30.413L 460.8,172.8c 9.912-8.755, 22.589-5.171, 31.365,4.721C 500.941,187.433, 501.432,205.005, 491.52,213.76L 286.72,377.6
		c-12.82,10.291-16.056,24.545-20.48,40.96c-8.602,28.211-40.233,50.842-71.281,50.842C 169.943,469.402, 143.022,447.764, 133.12,428.8l 61.44,0 L 219.484,401.265zM 359.977,152.32L 359.977,152.32l-63.304,109.875C 294.175,266.752, 287.857,275.2, 282.665,275.2L 106.455,275.2 c-5.192,0-11.51-8.448-14.019-13.005L 30.72,152.32L 29.143,152.32 
		C 18.749,152.32, 10.24,148.541, 10.24,138.138l0-94.515 C 10.24,33.219, 18.749,29.44, 29.143,29.44L 51.2,29.44 l0-33.075 C 51.2-19.241, 60.805-32, 76.401-32l 9.452,0 
		C 101.458-32, 112.64-19.241, 112.64-3.635L 112.64,29.44 l 163.84,0 l0-33.075 c0-15.596, 11.182-28.365, 26.778-28.365l 9.452,0 C 328.315-32, 337.92-19.241, 337.92-3.635L 337.92,29.44 l 22.057,0 
		C 370.371,29.44, 378.88,33.219, 378.88,43.622l0,94.515 C 378.88,148.541, 370.371,152.32, 359.977,152.32z M 62.228,81.428c-13.056,0-23.634,10.578-23.634,23.634
		s 10.578,23.634, 23.634,23.634c 13.046,0, 23.634-10.578, 23.634-23.634S 75.284,81.428, 62.228,81.428z M 81.132,152.32l 38.308,80.159
		C 121.764,237.128, 127.928,244.48, 133.12,244.48l 122.88,0 c 5.192,0, 11.346-7.352, 13.681-12.001L 307.988,152.32L 81.132,152.32 z M 326.892,81.428
		c-13.046,0-23.634,10.578-23.634,23.634s 10.578,23.634, 23.634,23.634s 23.634-10.578, 23.634-23.634S 339.937,81.428, 326.892,81.428zM-163.84,469.76L-163.84,469.76L-163.84,469.76L-163.84,469.76z"  />
<glyph unicode="&#xe02b;" d="M 255.99,199.619c-55.357,0-102.39-16.097-133.11-41.329L 122.88,111.36 l 266.24,0 l0,46.93 C 358.4,183.521, 311.357,199.619, 255.99,199.619zM 500.429,223.703L 255.345,336.64L 10.363,223.703L 51.2,205.015l0-28.744 c-10.24-2.12-10.271-7.485-10.271-13.865c0-3.768, 1.249-8.182, 3.625-10.824
		L 30.546,121.6l 49.971,0 l-13.885,30.003c 2.335,2.642, 4.25,6.533, 4.25,10.301C 70.881,168.274, 61.44,174.162, 61.44,176.282l0,23.931 l 51.2-22.999L 112.64,179.251 
		c 30.72,26.716, 84.695,43.674, 143.34,43.674C 314.644,222.925, 368.64,205.967, 399.36,179.251l0-2.038 L 500.429,223.703z"  />
<glyph unicode="&#xe02c;" d="M 471.040,336.64L 348.16,336.64 l0,40.714 C 348.16,406.548, 329.308,439.040, 300.145,439.040l-98.222,0 C 172.728,439.040, 153.6,406.548, 153.6,377.354L 153.6,336.64 L 40.96,336.64 c-11.264,0-20.48-9.216-20.48-20.48l0-296.96 c0-11.264, 9.216-20.48, 20.48-20.48
	l 430.080,0 c 11.264,0, 20.48,9.216, 20.48,20.48L 491.52,316.16 C 491.52,327.424, 482.304,336.64, 471.040,336.64z M 307.2,29.44L 194.56,29.44 l0,10.926 c0,0.236, 6.277,0.543, 9.277,0.901s 5.632,0.963, 7.793,1.802
	c 3.84,1.444, 8.141,3.512, 9.708,6.205S 225.28,55.552, 225.28,59.986l0,104.755 c0,4.198-2.54,7.895-4.465,11.069s-5.11,5.734-7.987,7.649
	c-2.161,1.444-3.676,2.816-8.059,4.137S 194.56,189.768, 194.56,190.126l0,13.138 l 83.712,4.68L 276.48,205.251l0-142.92 c0-4.198, 3.236-7.772, 5.038-10.711
	s 5.55-5.13, 8.909-6.574c 2.396-1.075, 4.966-2.038, 7.854-2.877S 307.2,40.735, 307.2,40.366L 307.2,29.44 z M 211.139,272.753
	c0,9.124, 3.512,16.916, 10.527,23.398s 15.391,9.718, 25.108,9.718s 18.063-3.236, 25.016-9.718s 10.445-14.285, 10.445-23.398s-3.512-16.886-10.527-23.306
	s-15.329-9.626-24.934-9.626c-9.718,0-18.094,3.205-25.108,9.626S 211.139,263.629, 211.139,272.753z M 317.44,336.64L 184.32,336.64 l0,40.714 C 184.32,388.28, 195.379,408.32, 206.305,408.32
	l 82.452,0 C 299.663,408.32, 317.44,388.28, 317.44,377.354L 317.44,336.64 z"  />
<glyph unicode="&#xe02d;" d="M 212.132,234.24L 32.348,234.24 c-5.243,0-9.554,3.215-9.554,8.346c0,0.85, 0.154,1.178, 0.328,1.946l 9.574,61.501
		C 33.495,310.374, 37.396,305.92, 42.086,305.92l 160.328,0 c 4.649,0, 8.581,4.219, 9.37-0.123l 9.585-65.526c 0.154-0.788, 0.338,1.27, 0.338,0.389
		C 221.706,235.571, 217.364,234.24, 212.132,234.24z M 204.933,156.733c-10.107,0-18.34,7.997-18.34,17.92c0,9.871, 8.223,17.818, 18.34,17.818
		c 10.056,0, 18.278-7.946, 18.278-17.818C 223.212,164.731, 214.999,156.733, 204.933,156.733z M 39.281,156.733c-10.025,0-18.248,7.997-18.248,17.92
		c0,9.871, 8.212,17.818, 18.248,17.818c 10.168,0, 18.371-7.946, 18.371-17.818C 57.651,164.731, 49.449,156.733, 39.281,156.733z M 61.44,357.12l 112.64,0 l0-30.72 L 61.44,326.4 
		C 51.2,326.4, 51.2,357.12, 61.44,357.12z M 232.428,329.441c-3.267,15.79-14.459,22.139-30.095,28.498c-15.606,6.339-52.562,13.926-79.749,13.926
		c-27.3,0-64.051-7.598-79.657-13.926c-15.616-6.359-26.982-12.708-30.249-28.498L0,241.521L0,121.6 l 18.278,0 l0,0c0-51.2, 34.417-51.2, 34.417,0l0,0l 137.636,0 l0,0
		c0-51.2, 34.406-51.2, 34.406,0l0,0L 245.76,121.6 L 245.76,241.521 L 232.428,329.441zM-163.84,469.76L-163.84,469.76L-163.84,469.76L-163.84,469.76zM 458.332,120.637c0,0.256-0.276,0.666-0.819,1.485c0,0.236, 0.154,0.41, 0.41,0.563c 0.246,0.154, 0.41,0.276, 0.41,0.563
	c 7.66,3.164, 14.633,7.066, 20.869,11.684c 6.216,4.669, 9.503,11.469, 11.663,20.47C 491.080,156.447, 491.52,158.884, 491.52,162.601L 491.52,348.713 
	c0,4.495-0.44,9.155-3.082,13.885c-2.662,4.823-5.519,9.134-9.523,12.964c-3.963,3.789-9.697,7.014-14.633,9.554
	C 460.012,387.308, 450.56,388.475, 450.56,388.751L 450.56,387.84 l 1.382,0 L 318.74,387.84 L 317.44,387.84 L 317.44,388.577 c-10.24-0.471-7.741-1.536-11.284-3.256c-4.915-2.396-10.025-5.448-14.121-9.165
	c-4.096-3.686-8.202-7.875-10.854-12.493C 278.528,358.963, 276.48,354.427, 276.48,349.88l0-188.887 c0-3.174, 1.26-6.492, 2.796-9.943
	c 1.618-3.451, 3.809-6.676, 6.185-9.697c 2.376-3.113, 5.1-5.888, 7.895-8.387c 2.775-2.509, 5.55-4.577, 8.212-6.164
	c 1.28-0.543, 3.656-1.362, 7.004-2.417c 3.256-1.055, 4.813-1.638, 4.567-2.161L 258.642,39.68l 31.805,0 l 39.793,61.44l 109.793,0 l 39.752-61.44L 512,39.68 L 458.332,120.637z
	 M 366.152,377.6l 36.465,0 c 8.018,0, 14.592-2.212, 14.592-10.24c0-8.018-6.574-10.24-14.592-10.24l-36.465,0 c-8.028,0-14.592,2.222-14.592,10.24
	C 351.56,375.388, 358.124,377.6, 366.152,377.6z M 460.8,283.894C 460.8,267.776, 447.744,254.72, 431.626,254.72L 326.134,254.72 C 310.016,254.72, 296.96,267.776, 296.96,283.894l0,23.583 
	C 296.96,323.584, 310.016,336.64, 326.134,336.64l 105.503,0 C 447.744,336.64, 460.8,323.584, 460.8,307.466L 460.8,283.894 z M 339.21,154.225c-4.106-4.239-9.247-6.349-15.309-6.349
	c-6.113,0-11.090,2.109-14.961,6.349c-3.83,4.229-5.755,9.441-5.755,15.544c0,5.56, 1.997,10.394, 5.99,14.49
	c 3.963,4.116, 8.878,6.195, 14.725,6.195c 6.062,0, 11.203-1.966, 15.309-5.755c 4.106-3.891, 6.164-8.94, 6.164-15.36
	C 345.375,163.502, 343.316,158.454, 339.21,154.225z M 430.295,154.225c-4.106,4.229-6.185,9.441-6.185,15.544c0,6.113, 2.181,11.049, 6.574,14.94
	c 4.393,3.779, 9.492,5.755, 15.34,5.755c 6.052,0, 11.049-2.079, 14.899-6.195c 3.83-4.096, 5.775-8.929, 5.775-14.49
	c0-6.103-2.007-11.305-5.98-15.544c-4.004-4.239-9.021-6.349-15.145-6.349C 439.491,147.866, 434.391,149.975, 430.295,154.225z"  />
<glyph unicode="&#xe02e;" d="M 356.157,411.761L 284.979,411.761 c-12.861-0.041-12.38-19.21,0-19.098l 71.178,0 l0-9.8 L 284.979,382.863 c-12.79,0.113-12.319-19.046,0-19.098l 71.178,0 l0-9.544 
		l0-0.471 L 284.979,353.751 c-12.79,0-12.319-19.149,0-19.098l 71.178,0 l0-9.544 L 284.979,325.11 c-12.524-0.092-12.319-19.261,0-19.323l 71.178,0 l0-9.564 L 284.979,296.223 
		c-12.524,0.041-12.575-19.098,0-19.098l 71.178,0 l0-9.544 L 284.979,267.581 c-12.524-0.041-12.575-19.2,0-19.108l 71.178,0 l0-9.779 L 284.979,238.694 
		c-12.524,0.113-12.575-19.026,0-19.098l 71.178,0 l0-9.523 L 284.979,210.074 c-12.524,0.010-12.319-19.169,0-19.108l 71.178,0 l0-185.948 
		c 0.041-28.334, 43.080-27.822, 43.203,0L 399.36,440.166 c-0.123,12.943-10.752,29.307-28.242,29.358L 284.979,469.524 c-12.861-0.010-12.38-19.18,0-19.098l 71.178-0.236
		l0-9.523 L 284.979,440.668 c-12.841,0.061-12.36-19.098,0-19.108l 71.178,0 L 356.157,411.761 L 356.157,411.761zM 280.084,82.094C 280.044,115.169, 245.76,150.743, 204.8,127.703L 204.8,254.208 L 178.309,462.848C 177.756,468.367, 173.076,469.668, 169.933,469.76
		c-3.246-0.092-9.748-1.393-10.455-6.912L 133.12,254.208l0-126.505 c-40.96,23.040-74.138-12.759-74.148-45.353c 0.010-29, 22.333-52.818, 52.541-52.746
		c 30.433-0.072, 52.326,26.624, 52.326,52.746L 163.84,213.76 l 10.24,0 l0-131.41 c0-29.245, 22.651-50.893, 47.821-52.265c-0.42-16.036, 4.813-38.912, 14.664-47.985
		c 11.551-10.65, 25.303,2.97, 19.661,14.060c-5.448,10.322-10.793,16.435-6.451,38.973C 267.919,43.53, 280.044,61.204, 280.084,82.094z
		 M 112.681,56.074c-14.295,0.092-25.846,11.684-25.866,26.020c 0.020,14.326, 11.571,25.969, 25.866,26.051c 14.193-0.082, 25.754-11.725, 25.856-26.051
		C 138.435,67.748, 126.874,56.156, 112.681,56.074z M 200.448,82.094c 0.092,14.326, 11.633,25.969, 25.866,26.051
		c 14.254-0.082, 25.815-11.725, 25.856-26.051c-0.041-14.336-11.592-25.928-25.856-26.020C 212.081,56.156, 200.53,67.748, 200.448,82.094z"  />
<glyph unicode="&#xe02f;" d="M 253.112-21.76C 134.943-21.76, 38.799,74.383, 38.799,192.563c0,75.633, 38.666,144.21, 103.444,183.429c 13.885,8.407, 31.928,3.963, 40.325-9.902
			c 8.397-13.865, 3.953-31.918-9.902-40.325c-47.053-28.488-75.141-78.295-75.141-133.202c0-85.801, 69.796-155.597, 155.597-155.597
			c 85.801,0, 155.587,69.796, 155.587,155.597c0,55.808-30.147,107.674-78.715,135.322c-14.1,8.028-19.005,25.948-10.988,40.038
			c 8.028,14.080, 25.948,18.995, 40.038,10.977c 66.867-38.072, 108.39-109.486, 108.39-186.348C 467.425,74.383, 371.302-21.76, 253.112-21.76zM 250.88,195.492c-16.21,0-35.84,13.148-35.84,29.358L 215.040,436.234 c0,16.21, 19.63,29.358, 35.84,29.358c 16.21,0, 35.84-13.148, 35.84-29.358l0-211.384 
			C 286.72,208.64, 267.090,195.492, 250.88,195.492z"  />
<glyph unicode="&#xe030;" d="M 365.158,177.521c 17.009,28.047, 26.952,60.908, 26.952,96.102c0,102.697-83.098,185.856-185.815,185.897
	C 103.67,459.489, 20.48,376.32, 20.48,273.644c0-102.584, 83.2-185.743, 185.876-185.743c 35.226,0, 68.045,9.953, 96.092,26.962L 428.841-11.52L 491.52,51.19
	L 365.158,177.521z M 206.336,158.669c-63.508,0.154-114.852,51.476-114.964,114.852C 91.494,337.029, 142.848,388.362, 206.336,388.506
	c 63.478-0.164, 114.842-51.487, 114.975-114.985C 321.178,210.217, 269.793,158.822, 206.336,158.669z"  />
<glyph unicode="&#xe031;" d="M 365.158,177.521c 17.009,28.047, 26.952,60.908, 26.952,96.102c0,102.697-83.098,185.856-185.815,185.897
	C 103.67,459.489, 20.48,376.32, 20.48,273.644c0-102.584, 83.2-185.743, 185.876-185.743c 35.226,0, 68.045,9.953, 96.092,26.962L 428.841-11.52L 491.52,51.19
	L 365.158,177.521z M 206.336,158.669c-63.508,0.154-114.852,51.476-114.964,114.852C 91.494,337.029, 142.848,388.362, 206.336,388.506
	c 63.478-0.164, 114.842-51.487, 114.975-114.985C 321.178,210.217, 269.793,158.822, 206.336,158.669zM 122.88,295.68L 286.72,295.68L 286.72,254.72L 122.88,254.72z"  />
<glyph unicode="&#xe032;" d="M 261.192,248.863c-15.483,0-28.068-12.585-28.068-28.058c0-15.473, 12.585-28.058, 28.068-28.058c 15.473,0, 28.068,12.585, 28.068,28.058
		C 289.26,236.278, 276.664,248.863, 261.192,248.863zM 428.278,438.292C 428.278,450.017, 418.775,459.52, 407.060,459.52L 103.148,459.52 C 91.423,459.52, 81.92,450.017, 81.92,438.292l0-428.605 C 81.92-2.028, 91.423-11.52, 103.148-11.52l 303.913,0 
		c 11.725,0, 21.217,9.492, 21.217,21.207L 428.278,438.292 z M 261.192,86.63c-73.984,0-134.175,60.18-134.175,134.175c0,73.974, 60.191,134.164, 134.175,134.164
		c 73.974,0, 134.154-60.191, 134.154-134.164C 395.336,146.811, 335.155,86.63, 261.192,86.63z"  />
<glyph unicode="&#xe033;" d="M 423.987,255.867l-25.18,105.124c-4.413,18.34-22.999,29.86-41.441,25.334c-16.22-3.963-24.105-15.196-27.3-23.101
		c-3.779-9.329-20.644-51.599-24.586-60.334c-1.382-3.031-4.301-4.628-4.895-4.895c-3.348-1.485-36.864-15.626-36.864-15.626l0-0.061 
		c-6.615-3.103-11.203-9.718-11.203-17.439c0-10.68, 8.745-19.343, 19.528-19.343c 2.324,0, 4.536,0.481, 6.615,1.219
		c0-0.010-0.020-0.041,0-0.072c 0.215,0.092, 44.493,18.493, 44.493,18.493c 6.103,2.847, 9.083,6.451, 12.114,11.704
		c 1.27,2.212, 5.13,11.469, 8.274,19.067l 26.849-112.282C 370.381,121.498, 370.36,9.677, 370.36,9.677c-0.051-17.285, 11.889-31.375, 29.338-31.437
		c 17.469-0.061, 30.095,13.896, 30.208,31.212c0,0, 0.174,195.656, 0.174,205.343C 430.060,224.451, 426.22,247.398, 423.987,255.867zM 287.171,430.643A39.475,39.117 180 1 1 366.121,430.64300000000003A39.475,39.117 180 1 1 287.171,430.64300000000003zM 175.421,100.076l0-43.827 c 5.683,1.044, 10.281,3.645, 13.855,7.813c 3.543,4.168, 5.315,9.042, 5.315,14.653
		c0,5.018-1.485,9.349-4.454,12.995C 187.126,95.314, 182.221,98.099, 175.421,100.076zM 148.347,168.141c-2.662-3.584-4.004-7.557-4.004-11.899c0-3.994, 1.219-7.66, 3.625-11.059c 2.437-3.42, 6.113-6.185, 10.998-8.274
		l0,38.881 l0,0C 154.511,174.295, 150.958,171.735, 148.347,168.141zM 252.488,220.201l 0.041,0 l-61.184,122.747l-0.010-0.113c-4.495,9.298-14.039,15.718-25.139,15.718l-56.392,0 
		C 94.413,358.564, 81.92,346.194, 81.92,330.936l0-215.081 c0-0.031,0-0.061,0-0.092L 81.92-21.76 l 173.732,0 L 255.652,206.356 C 255.631,211.313, 254.495,216.003, 252.488,220.201z
		 M 209.971,48.486c-8.294-9.288-19.804-14.981-34.519-17.070l0-21.023 l-16.456,0 l0,20.46 c-13.087,1.567-23.685,6.41-31.877,14.49
		c-8.151,8.1-13.363,19.517-15.626,34.273l 29.594,3.164c 1.198-6.001, 3.461-11.172, 6.81-15.534c 3.308-4.342, 7.014-7.485, 11.090-9.431
		l0,47.084 c-14.807,4.198-25.692,10.557-32.584,19.026c-6.932,8.499-10.394,18.811-10.394,30.956c0,12.288, 3.901,22.61, 11.756,30.976
		c 7.823,8.346, 18.227,13.169, 31.232,14.428l0,11.131 l 16.456,0 l0-11.131 c 12.001-1.413, 21.576-5.478, 28.682-12.175c 7.086-6.687, 11.622-15.688, 13.599-26.921
		l-28.682-3.707c-1.751,8.827-6.277,14.838-13.599,17.981l0-43.93 c 18.135-4.884, 30.495-11.192, 37.079-18.934
		c 6.564-7.762, 9.861-17.705, 9.861-29.839C 222.392,69.202, 218.255,57.784, 209.971,48.486z"  />
<glyph unicode="&#xe034;" d="M 475.914,268.421l-0.133,1.034c-0.287,1.444-0.819,2.898-1.3,3.707L 409.6,377.6c0,0-8.274,10.24-10.24,10.24c-30.72,0-245.76,0-276.48,0L 39.731,276.705
	l-0.983-1.024L 38.615,275.2c-0.655-1.034-1.219-2.202-1.72-3.584L 36.557,270.623c-0.492-1.7-0.717-3.174-0.655-5.386
	c 0.072-1.434, 0.328-2.857, 0.788-4.342l 0.389-1.116c 0.522-1.321, 1.167-2.529, 1.925-3.604l 201.021-254.638l 0.41-0.584
	c 1.034-1.331, 2.294-2.509, 3.83-3.584l 1.167-0.727c 1.147-0.717, 2.345-1.29, 4.086-1.925l 1.137-0.379C 252.621-6.164, 254.331-6.4, 256-6.4
	c 1.69,0, 3.338,0.225, 5.56,0.799l 1.362,0.481c 1.331,0.471, 2.529,1.055, 3.973,1.946l 0.901,0.563c 1.546,1.096, 2.785,2.284, 3.471,3.215
	l 201.277,254.904c 0.901,1.167, 1.659,2.478, 2.56,4.803c 0.492,1.29, 0.707,2.54, 0.819,3.287c 0.092,0.522, 0.154,1.055, 0.154,1.321
	l 0.082,1.044C 476.16,266.988, 476.047,268.012, 475.914,268.421z M 367.985,275.2l 28.652,51.845L 425.267,275.2L 367.985,275.2 z M 350.802,244.48l 67.973,0 L 305.48,100.966
	L 350.802,244.48z M 333.988,290.744L 292.608,346.88l 72.397,0 L 333.988,290.744z M 201.441,244.48l 109.148,0 L 256,71.66L 201.441,244.48z M 212.265,275.2L 256,334.551L 299.735,275.2
	L 212.265,275.2 z M 181.463,295.393L 162.499,346.88l 56.904,0 L 181.463,295.393z M 206.541,100.956L 93.235,244.48l 67.983,0 L 206.541,100.956z M 129.69,326.687L 148.664,275.2L 91.75,275.2 
	L 129.69,326.687z"  />
<glyph unicode="&#xe035;" d="M-163.84,469.76L-163.84,469.76L-163.84,469.76L-163.84,469.76zM 440.32,418.56L 440.32,459.52L 71.68,459.52L 71.68,418.56L0,418.56L0-21.76L 40.96-21.76L 40.96,377.6L 71.68,377.6L 71.68,336.64L 440.32,336.64L 440.32,377.6L 471.040,377.6L 471.040-21.76L 512-21.76L 512,418.56 zM 430.612,183.040L 430.612,183.040l-66.816,113.92C 361.144,301.885, 354.478,305.92, 348.989,305.92L 163,305.92 c-5.489,0-12.155-4.035-14.797-8.96L 81.398,183.040
	l0,0C 70.42,183.040, 61.44,173.824, 61.44,162.56l0-102.4 c0-11.264, 8.98-20.48, 19.958-20.48L 102.4,39.68 l0-30.72 c0-16.896, 12.421-30.72, 28.877-30.72l 9.984,0 C 157.716-21.76, 174.080-7.936, 174.080,8.96l0,30.72 l 163.84,0 l0-30.72 
	c0-16.896, 16.353-30.72, 32.819-30.72l 9.984,0 c 16.456,0, 28.877,13.824, 28.877,30.72l0,30.72 l 21.012,0 C 441.58,39.68, 450.56,48.896, 450.56,60.16L 450.56,162.56 C 450.56,173.824, 441.58,183.040, 430.612,183.040z
	 M 116.316,101.12c-13.773,0-24.945,11.459-24.945,25.6s 11.172,25.6, 24.945,25.6c 13.783,0, 24.945-11.459, 24.945-25.6S 130.099,101.12, 116.316,101.12z M 131.277,183.040
	l 45.425,83.005c 2.458,5.038, 8.96,9.155, 14.438,9.155l 129.71,0 c 5.489,0, 11.991-4.116, 14.438-9.155L 380.723,183.040L 131.277,183.040 z M 395.684,101.12
	c-13.773,0-24.945,11.459-24.945,25.6s 11.172,25.6, 24.945,25.6c 13.783,0, 24.955-11.459, 24.955-25.6S 409.457,101.12, 395.684,101.12z"  />
<glyph unicode="&#xe036;" d="M 192,432.64A42.24,42.24 180 1 1 276.48,432.64A42.24,42.24 180 1 1 192,432.64zM 225.28,377.6l-30.72,0 c-28.877,0-51.2-17.603-51.2-46.971L 143.36,203.52 c0-20.48, 30.72-20.48, 30.72,0L 174.080,326.4 l 10.24,0 l0-327.68 c0-12.626, 7.864-20.48, 20.48-20.48c 12.646,0, 20.48,7.854, 20.48,20.48L 225.28,193.28 L 225.28,377.6 zM 358.4,224l-41.134,106.056C 313.692,353.823, 289.69,377.6, 262.298,377.6L 235.52,377.6 l0-243.538 c 5.12-0.020, 10.24-0.768, 10.24-2.222l0-133.12 c0-10.65, 9.39-20.48, 20.48-20.48
	c 11.121,0, 20.48,9.841, 20.48,20.48L 286.72,131.84 l 39.619,0 c 3.707,0, 10.691,6.697, 10.691,10.24c0,0.819, 0.297,9.533,0,10.24l-60.508,166.267
	c-0.225,0.522-0.348,1.106-0.348,1.71c0,2.427, 2.038,4.393, 4.577,4.393c 2.161,0, 3.973-1.444, 4.454-3.369L 326.339,213.76
	c 2.734-6.154, 13.978-10.24, 21.371-10.24C 357.591,203.52, 358.615,222.925, 358.4,224z"  />
<glyph unicode="&#xe037;" d="M 286.556,165.335c-23.050,0-41.759-18.944-41.759-42.342c0-23.388, 18.719-42.363, 41.759-42.363c 23.060,0, 41.748,18.975, 41.748,42.363
		C 328.315,146.401, 309.617,165.335, 286.556,165.335z M 286.556,100.577c-12.237,0-22.118,10.025-22.118,22.415c0,12.38, 9.882,22.456, 22.118,22.456
		c 12.196,0, 22.129-10.076, 22.129-22.456C 308.695,110.602, 298.762,100.577, 286.556,100.577zM 459.336,352.061C 444.559,357.161, 349.204,367.36, 286.433,367.36c-62.761,0-163.84-10.332-178.801-14.756C 106.086,352.154, 61.44,339.845, 61.44,291.441L 61.44,162.253 
		C 61.44,153.477, 64.727,142.080, 69.581,142.080L 10.24,142.080 l0-20.48 l 224.922,0 c0,30.72, 23.163,52.449, 51.692,52.449c 28.57,0, 51.722-21.729, 51.722-52.449l 125.245,0 
		C 484.803,121.6, 501.76,141.015, 501.76,162.253L 501.76,298.312 C 501.76,319.56, 485.786,342.917, 459.336,352.061z M 205.169,250.9c0-4.035-2.877-6.42-6.83-6.42
		l-67.41,0 C 126.945,244.48, 122.88,245.996, 122.88,250.030l0,47.739 C 122.88,301.783, 126.945,305.92, 130.918,305.92l 67.41,0 C 202.281,305.92, 204.8,301.783, 204.8,297.769l0-47.739 
		L 205.169,250.9z M 450.56,250.030C 450.56,245.996, 447.386,244.48, 443.392,244.48L 294.236,244.48 C 290.253,244.48, 286.72,245.996, 286.72,250.030l0,47.739 
		C 286.72,301.783, 290.253,305.92, 294.236,305.92L 443.392,305.92 c 4.004,0, 7.168-4.137, 7.168-8.151L 450.56,250.030 z"  />
<glyph unicode="&#xe038;" d="M 307.2,398.080l0-337.92 L 61.44,60.16 L 61.44,398.080 L 307.2,398.080  M 348.16,439.040L 20.48,439.040 l0-430.080 l 327.68,0 L 348.16,439.040 L 348.16,439.040zM 92.16,357.12L 276.48,357.12L 276.48,316.16L 92.16,316.16zM 92.16,285.44L 276.48,285.44L 276.48,244.48L 92.16,244.48zM 92.16,213.76L 276.48,213.76L 276.48,172.8L 92.16,172.8zM 92.16,142.080L 276.48,142.080L 276.48,101.12L 92.16,101.12zM 409.6,357.12L 491.52,357.12L 491.52,70.4L 409.6,70.4zM 450.621,469.76C 428.155,469.76, 409.6,451.686, 409.6,429.445L 409.6,387.84 l 81.92,0 L 491.52,429.445 C 491.52,451.686, 472.996,469.76, 450.621,469.76zM 408.965,39.68L 450.345-25.723L 491.52,39.68 	z"  />
<glyph unicode="&#xe039;" d="M 484.966,328.96c 0.819-2.97-0.215-6.246-1.946-8.806l-55.194-82.125c-2.048-3.174-6.349-4.915-9.943-4.915c-1.024,0-3.891,0.205-5.007,0.512
				L 368.64,244.48l0-194.56 c0-5.939-4.198-10.24-10.24-10.24L 143.36,39.68 c-6.042,0-10.24,4.301-10.24,10.24L 133.12,244.48 l-39.731-10.957c-4.608-1.434-8.602,0.41-11.162,4.403l-54.784,81.92
				c-1.741,2.662-2.253,5.632-1.434,8.602c 0.717,3.072, 2.867,5.12, 5.632,6.554L 143.36,387.84c 10.24,0, 51.2,0, 51.2,0c 6.042,0, 10.24-4.198, 10.24-10.24c0-21.094, 29.594-36.045, 50.688-36.045
				c 21.094,0, 51.712,14.848, 51.712,36.045c0,5.939, 4.198,10.24, 10.24,10.24c0,0, 40.96,0, 51.2,0l 110.592-51.814C 482.099,334.592, 484.147,332.032, 484.966,328.96z"  />
<glyph unicode="&#xe03a;" d="M 61.44,367.36l0-345.498 C 61.44,6.81, 74.107-11.52, 89.702-11.52l 340.152,0 C 445.409-11.52, 460.8,6.81, 460.8,21.862L 460.8,367.36 L 61.44,367.36 z M 260.71,93.174
		c-60.006,0-108.657,47.043-108.657,105.093c0,58.051, 48.65,105.093, 108.657,105.093s 108.657-47.043, 108.657-105.093
		C 369.367,140.206, 320.717,93.174, 260.71,93.174zM 429.855,469.76L 89.702,469.76 C 74.107,469.76, 61.44,459.182, 61.44,444.109L 61.44,387.84 l 399.36,0 L 460.8,444.109 C 460.8,459.182, 445.409,469.76, 429.855,469.76z M 194.56,408.32L 81.92,408.32 L 81.92,449.28 l 112.64,0 L 194.56,408.32 z M 390.615,411.187
		c-12.79,0-23.122,10.025-23.122,22.405c0,12.36, 10.332,22.385, 23.122,22.385s 23.153-10.025, 23.153-22.385C 413.757,421.222, 403.405,411.187, 390.615,411.187z
		"  />
<glyph unicode="&#xe03b;" d="M 501.76,372.593c 6.185,4.68, 10.24,12.012, 10.24,20.367C 512,407.101, 500.541,418.56, 486.4,418.56S 460.8,407.101, 460.8,392.96c0-8.346, 4.055-15.688, 10.24-20.367L 471.040,213.76 l-92.16,0 l0-81.92 l 102.4,0 
	l0,3.041 c 15.002,6.083, 25.6,20.726, 25.6,37.919c0,7.076-1.956,13.64-5.12,19.446L 501.76,372.593 zM 61.44,305.92c 10.455,0, 17.715-1.761, 30.72,0c0,0-41.124-27.3-41.124-61.44L 102.4,244.48 c0,0, 0.061,56.873, 30.72,92.16l-10.24,10.24c0,0-20.48-10.24-40.96,0c0,0-20.48,0-40.96-10.24l0,10.24 L 30.72,346.88 l0-61.44 l 10.24,0 
	C 40.96,285.44, 40.96,305.92, 61.44,305.92zM 204.8,305.92c 10.455,0, 17.715-1.761, 30.72,0c0,0-41.124-27.3-41.124-61.44L 245.76,244.48 c0,0, 0.061,56.873, 30.72,92.16l-10.24,10.24c0,0-20.48-10.24-40.96,0c0,0-20.48,0-40.96-10.24l0,10.24 l-10.24,0 l0-61.44 l 10.24,0 
	C 184.32,285.44, 184.32,305.92, 204.8,305.92zM 389.12,408.32L 389.12,428.8 L 265.011,428.8 c-4.669,20.5-22.927,35.84-44.851,35.84S 179.978,449.3, 175.309,428.8L 51.2,428.8 l0-20.48 L0,408.32 l0-419.84 l 450.56,0 L 450.56,408.32 L 389.12,408.32 z M 163.84,367.36l 122.88,0 l0-143.36 L 163.84,224 L 163.84,367.36 z M 20.48,367.36l 122.88,0 l0-143.36 L 20.48,224 
	L 20.48,367.36 z M 389.12,39.68L 51.2,39.68 l0,71.68 l 337.92,0 L 389.12,39.68 z M 430.080,224L 307.2,224 L 307.2,367.36 l 122.88,0 L 430.080,224 zM 348.16,305.92c 10.455,0, 17.715-1.761, 30.72,0c0,0-41.124-27.3-41.124-61.44L 389.12,244.48 c0,0, 0.061,56.873, 30.72,92.16l-10.24,10.24c0,0-20.48-10.24-40.96,0c0,0-20.48,0-40.96-10.24l0,10.24 l-10.24,0 l0-61.44 l 10.24,0 
	C 327.68,285.44, 327.68,305.92, 348.16,305.92z"  />
<glyph unicode="&#xe03c;" d="M 443.187,337.705L 255.57,469.76l-42.24-29.778l 0.635-0.492L 48.742,322.038l0,0l0,0L 10.24,295.342l0-62.495 l 39.311,26.491L 49.551-21.76 l 3.973,0 l 42.854,0 l 6.359,0 
		l 303.237,0 l 13.23,0 l 39.465,0 l 3.789,0 L 462.459,261.847 L 501.76,232.847l0,62.495 L 443.187,337.705z M 403.456,38.124L 101.99,38.124 L 101.99,297.134 L 256.174,408.125L 403.456,302.131L 403.456,38.124 zM 186.726,267.356c 10.977,0, 20.050,9.042, 20.050,20.347c0,11.284-9.073,20.419-20.050,20.419c-11.11,0-20.101-9.144-20.101-20.419
		C 166.625,276.398, 175.616,267.356, 186.726,267.356zM 159.355,70.676c0-6.277, 4.485-12.196, 10.68-12.196c 6.226,0, 10.588,4.495, 10.588,10.803l0,95.242 l 13.117,0 l0-95.242 
		c0-6.298, 3.84-11.5, 10.035-11.5c 6.226,0, 10.742,6.615, 10.742,12.902l-0.502,167.035l 12.472,0 l0-66.529 c0-6.656, 13.107-6.656, 13.107,0l0,65.044 
		c0,13.548-10.547,26.778-26.235,26.778l-53.217,0.123c-14.223,0-25.395-11.858-25.395-26.573l0-65.372 c0-6.656, 13.097-6.656, 13.097,0l0,66.529 l 11.653,0 
		L 159.355,70.676zM 329.134,267.356c 11.018,0, 20.101,9.042, 20.101,20.347c0,11.284-9.083,20.419-20.101,20.419c-11.049,0-20.142-9.144-20.142-20.419
		C 308.992,276.398, 318.075,267.356, 329.134,267.356zM 301.814,70.676c0-6.277, 5.263-12.196, 11.459-12.196c 6.277,0, 11.54,4.495, 11.54,10.803l0,95.242 l 6.564,0 l0-95.242 
		c0-6.298, 6.195-11.5, 12.431-11.5c 6.236,0, 11.94,6.615, 11.94,12.902l 0.696,167.035l 7.711,0 l0-66.529 c0-6.656, 19.651-6.656, 19.651,0l0,65.044 
		c0,13.548-11.438,26.778-27.105,26.778l-52.746,0.123c-14.254,0-24.996-11.858-24.996-26.573l0-65.372 c0-6.656, 13.107-6.656, 13.107,0l0,66.529 l 9.841,0 
		L 301.814,70.676z"  />
<glyph unicode="&#xe03d;" d="M 476.109,367.36L 36.055,367.36 c-14.152,0-25.733-12.872-25.733-25.6c0-12.728, 11.581-25.59, 25.733-25.59l 6.216,0 l0-51.2 l 428.247,0 l0,51.2 l 5.591,0 
		c 14.162,0, 25.733,12.861, 25.733,25.59C 501.842,354.488, 490.271,367.36, 476.109,367.36z M 256.082,290.355c-7.107,0-12.861,5.929-12.861,13.23
		s 5.755,13.23, 12.861,13.23c 7.117,0, 12.861-5.929, 12.861-13.23S 263.199,290.355, 256.082,290.355zM 42.271,162.58l 428.247,0 L 470.518,244.48 L 42.271,244.48 L 42.271,162.58 z M 256.082,217.61c 7.117,0, 12.861-5.919, 12.861-13.22c0-7.311-5.745-13.23-12.861-13.23
		c-7.107,0-12.861,5.919-12.861,13.23C 243.21,211.692, 248.975,217.61, 256.082,217.61zM 42.271,91.955l0-26.47 l0-33.065 c0-7.27, 0.911-13.23, 7.987-13.23l 51.446,0 c 7.076,0, 10.281,5.96, 10.281,13.23l0,37.99 l 288.819,0 l0-37.99 
		c0-7.27, 2.58-13.23, 9.646-13.23l 51.456,0 c 7.055,0, 8.602,5.96, 8.602,13.23l0,33.065 l0,26.47 L 470.508,142.080 L 42.271,142.080 L 42.271,91.955 z M 256.082,118.405
		c 7.117,0, 12.861-5.929, 12.861-13.22c0-7.322-5.745-13.22-12.861-13.22c-7.107,0-12.861,5.898-12.861,13.22
		C 243.21,112.466, 248.975,118.405, 256.082,118.405z"  />
<glyph unicode="&#xe03e;" d="M 365.158,177.521c 17.009,28.047, 26.952,60.908, 26.952,96.102c0,102.697-83.098,185.856-185.815,185.897
		C 103.67,459.489, 20.48,376.32, 20.48,273.644c0-102.584, 83.2-185.743, 185.876-185.743c 35.226,0, 68.045,9.953, 96.092,26.962L 428.841-11.52L 491.52,51.19
		L 365.158,177.521z M 206.336,158.669c-63.508,0.154-114.852,51.476-114.964,114.852C 91.494,337.029, 142.848,388.362, 206.336,388.506
		c 63.478-0.164, 114.842-51.487, 114.975-114.985C 321.178,210.217, 269.793,158.822, 206.336,158.669zM 286.72,295.68L 225.28,295.68L 225.28,357.12L 184.32,357.12L 184.32,295.68L 122.88,295.68L 122.88,254.72L 184.32,254.72L 184.32,193.28L 225.28,193.28L 225.28,254.72L 286.72,254.72 	z"  />
<glyph unicode="&#xe03f;" d="M 491.52,275.2L 307.2,275.2L 307.2,459.52L 204.8,459.52L 204.8,275.2L 20.48,275.2L 20.48,172.8L 204.8,172.8L 204.8-11.52L 307.2-11.52L 307.2,172.8L 491.52,172.8 	z"  />
<glyph unicode="&#xe040;" d="M 348.16,367.36L 348.16,398.449 C 348.16,423.854, 326.564,449.28, 301.169,449.28l-85.432,0 C 190.351,449.28, 163.84,423.854, 163.84,398.449L 163.84,367.36 l-54.395,0 L 51.2,8.96l 411.515,0 l-59.167,358.4L 348.16,367.36 z
		 M 194.56,398.449C 194.56,407.962, 206.234,418.56, 215.736,418.56l 85.432,0 C 310.661,418.56, 317.44,407.962, 317.44,398.449L 317.44,367.36 L 194.56,367.36 L 194.56,398.449 z"  />
<glyph unicode="&#xe041;" d="M 259.43,231.199c0,0-49.551-39.864-49.551-72.090c0-14.428, 21.238-28.846, 49.551-28.846c 28.293,0, 49.531,14.418, 49.531,28.846
		C 308.961,192.492, 259.43,231.199, 259.43,231.199zM 440.074,304.067c 2.867,35.103, 13.046,67.328, 30.966,96.86L 402.237,469.76c-21.729-18.719-46.49-29.082-74.547-30.915
		c-25.702-2.324-50.063,2.56-72.97,14.694c-23.572-11.735-47.841-16.64-73.144-14.694c-26.163,2.345-49.787,11.622-70.932,28.068L 41.646,398.111
		c 16.968-29.962, 26.419-61.307, 28.273-94.044c 0.881-15.073-3.42-35.809-13.066-62.638c-5.048-14.868-8.858-27.761-11.469-38.543
		c-2.417-10.701-3.922-19.405-4.413-25.917c-0.358-28.57, 7.66-54.385, 24.095-77.312c 12.841-16.742, 34.017-35.236, 63.427-55.45
		c 32.184-16.384, 57.078-27.013, 74.516-31.56c 4.987-2.335, 9.892-4.567, 14.459-6.717c 4.557-2.171, 9.431-4.301, 14.51-6.625
		c 10.967-6.564, 18.668-13.691, 22.743-21.053c 4.966,7.956, 12.841,14.909, 23.327,21.053c 7.393,3.226, 13.629,6.031, 18.657,8.479
		c 5.007,2.222, 8.755,3.871, 10.916,4.874c 3.727,1.853, 8.632,3.973, 14.531,6.308c 5.949,2.345, 13.332,5.212, 22.118,8.407
		c 16.988,6.011, 29.379,11.704, 37.222,16.845c 28.529,20.214, 49.388,38.4, 62.648,54.682c 17.029,23.020, 25.293,48.937, 24.914,78.080
		c-1.014,13.046-6.533,33.925-16.558,62.362C 442.941,267.039, 438.702,288.543, 440.074,304.067z M 259.43,101.427
		c-62.536,0-120.32,51.651-120.32,115.354c0,43.264, 33.075,84.132, 42.465,100.936l 28.303-43.264l 49.551,72.090l 49.531-72.090l 28.344,43.264
		c 9.359-16.804, 42.465-57.672, 42.465-100.936C 379.771,153.078, 321.976,101.427, 259.43,101.427z"  />
<glyph unicode="&#xe042;" d="M 501.76,250.665L 266.24,362.076L 266.24,408.32L 296.96,408.32L 296.96,428.8L 266.24,428.8L 266.24,469.76L 245.76,469.76L 245.76,428.8L 215.040,428.8L 215.040,408.32L 245.76,408.32L 245.76,362.076L 81.326,284.201L 81.326,284.201L 81.326,284.201L 10.24,250.665L 10.24,234.24L 81.92,234.24L 81.92-21.76L 204.8-21.76L 204.8,131.84L 307.2,131.84L 307.2-21.76L 430.080-21.76L 430.080,234.24L 501.76,234.24 	z"  />
<glyph unicode="&#xe043;" d="M 257.577,302.367c 40.479,0, 73.155,32.942, 73.155,73.554c0,40.53-32.666,73.359-73.155,73.359c-40.428,0-73.247-32.84-73.247-73.359
			C 184.33,335.319, 217.16,302.367, 257.577,302.367zM 328.755,285.44c 33.495,0, 47.555-28.611, 47.555-28.611l 108.104-148.941c 4.475-6.646, 7.107-14.776, 7.107-23.552
			c0-23.142-18.719-41.953-41.789-41.953c-5.519,0-10.865,1.198-15.555,3.021L 368.64,63.57L 368.64-1.28 L 143.36-1.28 l0,64.85 l-65.556-18.196
			C 73.196,43.571, 67.891,42.342, 62.351,42.342c-23.050,0-41.861,18.739-41.861,41.882c0,8.765, 2.591,16.763, 7.229,23.429l 108.032,149.176
			c0,0, 14.049,28.611, 47.401,28.611L 328.755,285.44 z M 256.061,43.899L 256.061,43.899l 84.439,28.058l-1.833,0.512c-58.419,17.121-36.024,94.495, 22.252,77.179
			L 368.64,146.903l0,87.255 l-112.527-37.1L 143.36,234.158l0-87.255 l 7.721,2.755c 58.245,17.306, 80.876-60.058, 22.497-77.179l-2.048-0.512L 256.061,43.899
			L 256.061,43.899z"  />
<glyph unicode="&#xe044;" d="M 261.908,388.475c 23.521-1.731, 44.093,15.032, 45.957,37.356c 1.884,22.436-15.667,42.066-39.188,43.796c-23.552,1.71-44.124-14.95-45.947-37.386
		C 220.897,409.815, 238.459,390.226, 261.908,388.475zM 438.098,60.16l-14.213,122.88l-23.060,0 c 0.215,10.24, 0.184,11.377-0.522,17.592c-0.686,6.359-2.703,11.008-5.99,12.472
		c 2.693,2.867, 4.485,6.513, 4.833,10.619c 0.522,6.472-2.509,12.524-7.578,16.128l-58.696,38.584l-43.213,81.367
		c-7.158,10.65-19.282,19.241-33.915,20.47c-11.244,0.778-21.586-2.939-29.952-8.468l-85.75-66.376c-2.826-2.273-4.946-5.263-5.908-8.858
		l-19.978-80.394C 113.981,215.409, 112.64,214.548, 112.64,213.791c0-0.010,0-0.020,0-0.031l-0.164,0 c-3.348,0-6.4-3.195-7.567-7.424
		C 103.782,202.189, 102.4,196.71, 102.4,192.276C 102.4,189.082, 102.4,183.040, 102.4,183.040L 80.138,183.040 L 65.925,60.16l 57.436,0 l-25.18-40.294c-1.638-3.123-3.564-7.537-3.901-11.796
		c-1.239-15.258, 10.639-28.518, 26.563-29.737c 11.377-0.758, 21.166,4.731, 27.116,13.496L 190.454,60.16l 5.56,0 l-0.87,7.547l 11.786,18.964
		c 1.28,2.54, 5.345,8.755, 5.796,11.704l 14.397,62.566l 61.45-64.236l 19.292-96.573c 3.082-11.418, 12.933-20.838, 26.040-21.801
		c 15.944-1.208, 29.901,10.045, 31.171,25.272c 0.113,1.905-0.225,3.338-0.174,5.612L 354.826,60.16l 18.207,0 L 438.098,60.16 z M 112.2,193.382
		c 0.573,4.844, 2.386,7.598, 5.581,7.598c 0.42,0, 0.778,0.010, 1.198,0.020c 3.226-3.901, 8.018-6.574, 13.548-7.025
		c 6.339-0.492, 12.032,2.243, 15.903,6.482c 0.86-0.727, 1.546-1.823, 2.017-3.338c 0.85-2.939, 1.341-6.308, 1.341-9.083
		c0-1.659-0.082-4.997-0.195-4.997l-20.644,0 l-19.046,0 C 111.77,183.040, 111.811,189.624, 112.2,193.382z M 170.885,183.040l-12.134,0 
		c 0.256,10.24, 0.184,11.377-0.481,17.592c-0.573,5.325-2.079,9.441-4.465,11.551l 15.145,65.966l 29.87,23.112L 170.885,183.040z M 393.687,183.040L 373.043,183.040 
		l-19.077,0 c-0.164,0-0.113,6.584, 0.297,10.342c 0.532,4.844, 2.376,7.598, 5.581,7.598c 4.598,0, 8.765,0.143, 12.462,0.225
		c 3.717,0.133, 8.786,0.317, 15.165,0.317c 2.447,0, 4.106-1.454, 5.028-4.413c 0.881-2.939, 1.352-6.308, 1.352-9.083
		C 393.851,186.378, 393.759,183.040, 393.687,183.040z M 265.216,206.418l 19.251,81.265l 16.189-30.546c 1.28-2.099, 2.796-3.83, 4.792-5.458L 363.274,213.76l-8.735,0 
		c-3.348,0-4.577-3.195-5.734-7.424C 347.709,202.189, 348.16,196.71, 348.16,192.276C 348.16,189.082, 348.16,183.040, 348.16,183.040l-25.928,0 l-4.188-36.147L 265.216,206.418z"  />
<glyph unicode="&#xe045;" d="M 471.040,183.040L 471.040-21.76L 317.44-21.76L 317.44,19.2L 184.32,19.2L 184.32-21.76L 40.96-21.76L 40.96,183.040 	zM 378.358,220.365c-5.878,25.692-19.139,48.282-40.038,65.546C 318.075,302.735, 294.124,305.92, 266.342,316.16L 266.24,316.16 L 266.24,380.959 
		c0,0.287, 2.775,0.512, 5.366,1.444c 3.676,1.28, 7.148,2.755, 11.745,4.352c 4.516,1.526, 8.602,2.806, 12.861,3.707
		c 4.178,0.993, 7.076,1.413, 9.062,1.413c 3.86,0, 8.745-0.614, 14.459-1.864c 5.816-1.413, 12.012-2.939, 18.309-4.669
		c 6.564-1.987, 12.421-3.492, 18.104-4.772c 5.417-1.239, 9.953-1.751, 13.711-1.751C 375.839,378.808, 378.88,379.638, 389.12,381.46L 389.12,455.619 
		c-10.24-2.437-12.052-3.779-19.272-3.779c-3.758,0-8.407,0.573-13.834,1.946c-5.663,1.085-11.5,2.775-18.063,4.68
		c-6.298,1.915-12.247,3.359-17.746,4.567c-5.56,1.321-9.175,1.956-13.107,1.956c-13.036,0-30.618-3.082-40.858-8.765L 266.24,469.76 l-20.48,0 l0-153.6 l-0.645,0 
		c-27.566-10.24-51.702-14.008-71.926-30.833c-20.5-17.285-33.812-38.41-40.11-64.113c0,0-19.63,2.785-19.63-17.695l 286.413,0 
		C 399.862,224, 378.358,220.365, 378.358,220.365z"  />
<glyph unicode="&#xe046;" d="M 483.645,60.16c0,0-74.045,0-166.205,0l0-40.735 L 317.44,19.2 c 40.96,0, 66.877,0, 66.877,0c 28.959,0, 41.513,0, 56.689,0l 44.339,0 
		C 499.149,19.2, 501.76,31.232, 501.76,31.232l0,9.933 C 501.76,41.165, 501.637,60.16, 483.645,60.16zM 460.657,68.25C 483.328,68.25, 501.76,86.702, 501.76,109.435c0,22.804-18.432,41.196-41.103,41.196c-22.641,0-41.021-18.401-41.021-41.196
		C 419.635,86.712, 438.016,68.25, 460.657,68.25zM 374.088,70.4c 21.565,0, 38.912,15.196, 38.912,36.731c-0.010,21.494-17.418,32.768-38.82,32.932L 317.44,132.874L 317.44,70.4 L 374.088,70.4 L 374.088,70.4zM 189.676,337.326c 25.18,0, 45.548,20.48, 45.548,45.742C 235.223,408.33, 214.856,428.8, 189.676,428.8c-25.16,0-45.558-20.47-45.558-45.732
		C 144.118,357.806, 164.516,337.326, 189.676,337.326zM 143.165,189.297c-0.113,0.215-0.297,0.338-0.41,0.594l-20.644,48.067L 122.081,142.080l 61.696,0 l 13.476,14.336l-36.547,14.070
		C 152.044,173.742, 145.889,181.115, 143.165,189.297zM 156.242,193.608c 1.997-4.485, 5.693-8.12, 10.342-9.789l 70.42-26.102c 9.011-3.983, 19.538,0.154, 23.491,9.196
		c 3.953,9.103-0.154,19.702-9.175,23.665l-64.973,24.535l-20.070,48.138l 13.087,4.874l 17.009-41.247L 245.76,208.568l0,50.401 l 26.214-15.596l 13.066-65.823
		c 3.205-9.4, 13.353-14.346, 22.712-11.1c 9.267,3.215, 14.193,13.466, 11.008,22.825l-14.643,63.396c-0.963,3.553-3,6.656-5.755,8.98
		c-7.506,8.315-45.466,50.76-48.169,53.596C 246.231,319.222, 237.169,326.4, 220.047,326.4l-61.44,0 c-34.918,0-41.636-35.635-34.499-53.76L 156.242,193.608zM 307.2,131.84L 30.382,131.84 C 20.306,131.84, 10.24,126.157, 10.24,113.654c0-2.898,0-8.202,0-8.202L 10.24,19.2 c0,0, 18.012,0, 23.859,0L 307.2,19.2 L 307.2,131.84 z"  />
<glyph unicode="&#xe047;" d="M 419.84,285.44l-2.785,0 c-0.758,1.311-1.638,2.58-2.724,3.738L 296.12,415.826C 296.643,418.355, 296.96,420.977, 296.96,423.68C 296.96,443.474, 282.378,459.52, 264.376,459.52
	c-6.943,0-30.3,0-37.243,0C 209.142,459.52, 194.56,443.474, 194.56,423.68c0-2.703, 0.328-5.325, 0.84-7.854L 77.189,289.178
	C 76.114,288.020, 75.233,286.751, 74.465,285.44L 20.48,285.44 l0-71.68 l 20.48,0 l0-153.6 c0-28.283, 22.927-51.2, 51.2-51.2l 327.68,0 c 28.283,0, 51.2,22.917, 51.2,51.2L 471.040,213.76 l 20.48,0 l0,71.68 L 419.84,285.44 z M 227.144,387.84
	c 6.943,0, 30.3,0, 37.243,0c 0.573,0, 1.096,0.154, 1.669,0.184L 361.789,285.44L 129.731,285.44 l 95.744,102.584C 226.038,387.994, 226.57,387.84, 227.144,387.84z M 133.12,70.4
	c0-11.264-9.216-20.48-20.48-20.48s-20.48,9.216-20.48,20.48L 92.16,193.28 c0,11.264, 9.216,20.48, 20.48,20.48s 20.48-9.216, 20.48-20.48L 133.12,70.4 z M 225.28,70.4c0-11.264-9.216-20.48-20.48-20.48s-20.48,9.216-20.48,20.48L 184.32,193.28 c0,11.264, 9.216,20.48, 20.48,20.48s 20.48-9.216, 20.48-20.48L 225.28,70.4 z
	 M 327.68,70.4c0-11.264-9.216-20.48-20.48-20.48s-20.48,9.216-20.48,20.48L 286.72,193.28 c0,11.264, 9.216,20.48, 20.48,20.48s 20.48-9.216, 20.48-20.48L 327.68,70.4 z M 419.84,70.4c0-11.264-9.216-20.48-20.48-20.48s-20.48,9.216-20.48,20.48L 378.88,193.28 c0,11.264, 9.216,20.48, 20.48,20.48
	s 20.48-9.216, 20.48-20.48L 419.84,70.4 z"  />
<glyph unicode="&#xe048;" d="M 292.669,269.629c0-34.499-28.559-34.499-43.95-34.499l-19.19,0 l0,65.219 l 24.115,0 C 267.131,300.349, 292.669,300.349, 292.669,269.629zM 440.084,304.067c 2.847,35.103, 13.015,67.318, 30.956,96.85L 402.237,469.76c-21.74-18.719-46.479-29.082-74.537-30.915
		c-25.692-2.324-50.084,2.56-72.98,14.684c-23.562-11.735-47.831-16.64-73.134-14.684c-26.173,2.345-49.787,11.622-70.943,28.068L 41.646,398.1
		c 16.968-29.952, 26.419-61.307, 28.283-94.034c 0.881-15.073-3.42-35.82-13.066-62.638C 51.814,226.56, 47.995,213.658, 45.394,202.885
		c-2.406-10.701-3.912-19.405-4.413-25.917c-0.358-28.58, 7.66-54.385, 24.095-77.312c 12.841-16.742, 34.017-35.226, 63.427-55.45
		c 32.174-16.384, 57.078-27.023, 74.516-31.549c 4.987-2.345, 9.892-4.588, 14.459-6.717c 4.547-2.191, 9.421-4.311, 14.51-6.625
		c 10.967-6.574, 18.678-13.711, 22.733-21.064c 4.977,7.956, 12.851,14.909, 23.316,21.064c 7.393,3.215, 13.65,6.021, 18.668,8.479
		c 5.018,2.202, 8.755,3.86, 10.926,4.874c 3.717,1.853, 8.602,3.963, 14.51,6.298c 5.97,2.345, 13.332,5.222, 22.129,8.397
		c 16.998,6.031, 29.368,11.715, 37.233,16.855c 28.518,20.224, 49.367,38.4, 62.638,54.671c 17.019,23.030, 25.283,48.947, 24.904,78.090
		c-1.004,13.046-6.523,33.925-16.548,62.372C 442.931,267.039, 438.692,288.543, 440.084,304.067z M 313.62,209.756
		c-16.333-10.691-38.789-10.691-50.514-10.691l-32.205,0 l0-88.125 l-48.425,0 L 182.477,336.998 l 68.741,0 c 31.949,0, 58.665-2.058, 77.22-24.678
		c 11.581-14.397, 13.537-30.751, 13.537-42.373C 341.955,243.62, 331.11,221.399, 313.62,209.756z"  />
<glyph unicode="&#xe049;" d="M 486.451,269.527C 484.076,398.94, 409.385,450.365, 406.323,452.413L 394.752,460.339l-11.633-7.905c-19.343-13.189-39.393-19.886-59.566-19.886
	c-33.475,0-56.156,18.104-57.129,18.883l-13.025,10.506l-12.933-10.527c-0.942-0.768-23.654-18.872-57.108-18.872
	c-20.183,0-40.223,6.687-59.587,19.917l-11.592,7.864l-11.674-7.926C 92.57,446.915, 23.030,395.295, 20.511,270.162
	c-1.004-10.885, 28.908-216.842, 232.97-276.593C 475.392,58.737, 487.578,255.928, 486.451,269.527z M 61.604,267.049l 0.031-2.918
	C 62.044,287.754, 65.341,316.16, 71.731,326.4l 363.407,0 c 6.42-10.24, 9.748-38.717, 10.117-62.505l 0.143,0.102c 0.809-6.595-7.311-192-191.918-229.222
	C 88.207,71.25, 60.877,260.966, 61.604,267.049z"  />
<glyph unicode="&#xe04a;" d="M 20.48,275.2L 491.52,275.2L 491.52,172.8L 20.48,172.8z"  />
<glyph unicode="&#xe04b;" d="M 332.974-12.616L 260.557,203.52L 25.211,203.52L 477.798,457.513 z"  />
<glyph unicode="&#xe04c;" d="M 256,480c-84.828,0-153.6-68.157-153.6-152.228c0-84.081, 153.6-359.782, 153.6-359.782s 153.6,275.702, 153.6,359.782C 409.6,411.843, 340.828,480, 256,480z
	 M 255.498,282.245c-26.184,0-47.401,21.043-47.401,46.981c0,25.958, 21.217,46.991, 47.401,46.991c 26.204,0, 47.421-21.033, 47.421-46.991
	C 302.92,303.288, 281.702,282.245, 255.498,282.245z"  />
<glyph unicode="&#xe04d;" d="M 441.958,264.96L 419.84,264.96 l0,88.392 C 419.84,411.494, 361.513,469.76, 303.37,469.76l-97.085,0 C 148.173,469.76, 92.16,411.494, 92.16,353.352L 92.16,264.96 L 67.686,264.96 C 60.754,264.96, 51.2,254.085, 51.2,247.962l0-260.69 
		C 51.2-18.852, 60.754-21.76, 67.686-21.76l 374.272,0 c 6.953,0, 18.842,2.908, 18.842,9.032L 460.8,247.962 C 460.8,254.085, 448.911,264.96, 441.958,264.96z M 304.261,19.2l-98.826,0 
		l 20.736,102.062c-12.534,8.878-20.736,25.61-20.736,42.035c0,27.064, 22.129,50.115, 49.408,50.115c 27.279,0, 49.418-21.391, 49.418-48.435
		c0-16.435-8.202-35.113-20.716-44.001L 304.261,19.2z M 348.16,264.96L 163.84,264.96 l0,88.392 C 163.84,379.75, 181.176,398.080, 207.268,398.080l 95.119,0 C 328.479,398.080, 348.16,379.75, 348.16,353.352L 348.16,264.96 z"  />
<glyph unicode="&#xe04e;" d="M 439.542,346.88L 389.12,346.88 L 389.12,400.394 C 389.12,438.651, 358.932,469.76, 320.573,469.76L 191.437,469.76 C 153.057,469.76, 122.88,438.651, 122.88,400.394L 122.88,346.88 L 72.448,346.88 C 38.083,346.88, 10.24,320.348, 10.24,286.085
	l0-235.592 C 10.24,16.241, 38.083-11.52, 72.448-11.52l 367.094,0 C 473.897-11.52, 501.76,16.241, 501.76,50.504L 501.76,286.085 C 501.76,320.348, 473.897,346.88, 439.542,346.88z M 163.84,400.394
	C 163.84,414.72, 177.070,428.8, 191.437,428.8l 129.137,0 C 334.899,428.8, 348.16,414.72, 348.16,400.394L 348.16,346.88 L 163.84,346.88 L 163.84,400.394 z M 368.64,121.6l-71.68,0 l0-71.68 l-81.92,0 l0,71.68 l-71.68,0 l0,81.92 l 71.68,0 l0,71.68 l 81.92,0 l0-71.68 l 71.68,0 L 368.64,121.6 z"  />
<glyph unicode="&#xe04f;" d="M 491.745,207.084c-14.295-66.755-63.406-121.59-128.164-143.114c-19.866-6.615-40.448-9.964-61.184-9.964
		c-83.446,0-157.225,53.146-183.603,132.239c-16.333,48.957-12.585,101.335, 10.547,147.497c 23.132,46.152, 62.884,80.558, 111.923,96.87
		c 46.131,15.319, 96.225,12.759, 140.39-7.055l 9.574,18.053C 327.096,481.229, 247.214,490.711, 175.391,466.821C 110.438,445.225, 57.795,399.657, 27.156,338.534
		c-30.638-61.133-35.594-130.519-13.967-195.379C 48.128,38.39, 145.848-32, 256.358-32c 27.464,0, 54.712,4.434, 81.009,13.169
		c 98.028,32.604, 166.564,120.115, 174.612,222.966L 491.745,207.084zM 365.537,330.465L 314.194,426.557L 288.082,319.273L 181.289,298.281L 279.050,242.77L 262.236,132.219L 345.252,207.729L 448.123,158.372L 395.581,261.048L 478.771,341.35 	z"  />
<glyph unicode="&#xe050;" d="M 352.645,300.268c 35.82,0, 64.983,28.682, 64.983,64.215C 417.628,400.005, 388.475,428.8, 352.645,428.8c-35.963,0-65.178-28.795-65.178-64.317
		C 287.468,328.95, 316.692,300.268, 352.645,300.268zM 501.76,143.544l0,81.306 L 414.054,274.176c-14.858,7.455-31.375,9.984-47.882,6.502c-6.758-1.382-13.117-3.963-20.265-7.895
		c-0.778-0.215-26.819-11.571-41.953-46.5L 243.558,106.138c0,0-59.505-11.397-84.408-16.148c-1.966-1.3-4.076-2.355-6.093-3.594l-15.411,55.101
		c-6.38,22.405, 17.418,54.886, 18.309,56.207c 15.749,22.784, 20.060,52.797, 11.786,82.524c-7.537,26.88-24.699,49.541-47.043,62.29
		c-17.48,9.82-37.13,12.524-54.968,7.67c-13.855-3.758-26.204-11.817-35.748-23.398c-0.123-0.113-7.383-10.752-7.383-10.752
		c-12.841-22.354-15.8-50.371-8.376-77.394c 7.537-27.136, 24.504-49.705, 46.961-62.28l 5.376-2.816c 0.717-0.051, 37.704-14.961, 44.134-36.352
		c-0.082-0.113, 9.708-35.092, 17.695-63.601c-2.048-0.881-4.014-1.946-6.083-2.765c 0.297-0.215, 0.85-0.553, 1.188-0.788
		c-1.802-2.755-4.966-8.858-4.741-15.104c0-1.987, 0.164-3.973, 0.543-5.898c 3.41-17.664, 20.91-29.46, 38.789-25.866l 114.125,21.955
		c0,0, 9.708,2.918, 13.865,5.847c 5.356,3.758, 9.39,11.643, 9.39,11.643l 29.993,59.628c0,0, 20.675-96.358, 21.074-98.14
		c-0.348-0.266-2.028-2.099-4.762-4.905l 155.679,0 c-2.345,13.681-3.901,22.456-3.901,22.559c0,0.225-4.905,21.617-4.905,21.617
		c 0.164-0.154-13.353,60.027-23.685,107.131c 16.466-9.421, 31.386-17.797, 32.215-18.248C 497.295,151.992, 499.067,148.623, 501.76,143.544z M 109.435,192.963
		c-11.561-3.072-23.91-1.208-35.748,5.315c-16.486,9.216-29.225,26.368-34.683,47.063c-5.816,20.623-3.697,41.748, 5.693,58.030l 5.243,7.557
		c 6.185,7.506, 13.681,12.524, 22.671,15.012c 28.713,7.711, 60.334-15.78, 70.554-52.47C 153.231,236.943, 138.158,200.694, 109.435,192.963z"  />
<glyph unicode="&#xe051;" d="M 30.72,418.56L 481.28,418.56L 481.28,367.36L 30.72,367.36zM 61.44,346.88l0-337.92 l 389.12,0 L 450.56,346.88 L 61.44,346.88 z M 327.68,254.72L 174.080,254.72 l0,30.72 l 153.6,0 L 327.68,254.72 z"  />
<glyph unicode="&#xe052;" d="M 432.282,346.88l-58.102,0 l 58.46,56.054L 374.804,459.52l-81.859,0 l 58.644-56.044L 291.471,346.88l-69.519,0 l 59.781,56.054L 222.679,459.52l-83.261,0 l 58.644-56.044
		L 137.861,346.88L 78.94,346.88 l 59.812,56.054L 79.585,459.52L 20.48,459.52 l0-471.040 l 471.040,0 L 491.52,459.52 l-57.774,0 L 491.52,403.159L 432.282,346.88z M 430.080,49.92L 81.92,49.92 l0,61.44 l 348.16,0 L 430.080,49.92 z M 430.080,162.56L 81.92,162.56 l0,61.44 l 348.16,0 L 430.080,162.56 z"  />
<glyph unicode="&#xe053;" d="M 419.84,336.64l-51.2,0 L 368.64,450.109 C 368.64,460.964, 359.475,469.76, 348.16,469.76s-20.48-8.796-20.48-19.651L 327.68,336.64 L 163.84,336.64 L 163.84,450.109 C 163.84,460.964, 154.675,469.76, 143.35,469.76
	C 132.035,469.76, 122.88,460.964, 122.88,450.109L 122.88,336.64 L 71.68,336.64 c-5.663,0-10.24-8.899-10.24-14.326L 61.44,273.152 c0-58.972, 102.4-127.447, 102.4-222.167L 163.84,19.2 l 40.96,0 l0-40.96 l 81.92,0 l0,40.96 l 40.96,0 l0,31.785 
	c0,94.72, 102.4,163.205, 102.4,222.167l0,49.162 C 430.080,327.741, 425.503,336.64, 419.84,336.64 M 234.568,168.827C 235.233,170.977, 233.882,172.8, 231.537,172.8l-39.782,0 
	c-2.355,0-3.021,1.331-1.526,3.062c0,0, 81.971,104.028, 83.569,106.035c 1.208,1.905, 2.54,1.239, 2.12-0.952
	c-0.635-2.775-18.135-73.748-18.135-73.748C 256.932,205.107, 258.161,203.52, 260.485,203.52l 39.803,0 c 2.345,0, 3.092-1.577, 1.659-3.359
	c0,0-82.094-106.516-83.569-108.298c-1.485-1.782-2.857-1.239-2.109,1.792C 217.016,96.696, 234.568,168.827, 234.568,168.827"  />
<glyph unicode="&#xe054;" d="M 87.286,164.659c-20.255,0-36.71-16.558-36.71-36.905C 50.575,107.397, 67.041,90.88, 87.286,90.88c 20.296,0, 36.762,16.517, 36.762,36.884
			C 124.047,148.101, 107.592,164.659, 87.286,164.659z M 87.286,108.739c-10.117,0-18.35,8.264-18.35,18.463c0,10.158, 8.233,18.442, 18.35,18.442
			c 10.168,0, 18.401-8.284, 18.401-18.442C 105.697,117.002, 97.464,108.739, 87.286,108.739zM 410.286,164.659c-20.285,0-36.731-16.558-36.731-36.905c0-20.357, 16.435-36.884, 36.731-36.884c 20.275,0, 36.762,16.517, 36.762,36.884
			C 447.048,148.101, 430.572,164.659, 410.286,164.659z M 410.286,108.739c-10.127,0-18.371,8.264-18.371,18.463
			c 0.010,10.158, 8.243,18.442, 18.371,18.442c 10.158,0, 18.401-8.284, 18.401-18.442C 428.687,117.002, 420.454,108.739, 410.286,108.739zM 491.592,336.64L 168.561,336.64 c-5.601,0-10.168-4.567-10.168-10.209l0-92.59 l-20.347,0 l0,56.842 c0,5.652-4.557,10.209-10.179,10.209L 58.563,300.892 
			c-12.083,0-22.876-8.929-24.812-21.709l0,0.666 l-10.813-61.307l 0.020-0.215C 15.616,217.078, 10.24,210.698, 10.24,203.213c0-1.096, 0.123-2.222, 0.338-3.277
			L 10.24,200.028l 15.258-68.966l 15.892,0 l0,0.625 c0,24.719, 20.224,44.739, 45.158,44.739c 24.914,0, 45.148-20.019, 45.148-44.739l0-0.625 l 232.714,0 l0,0.625 
			c0,24.719, 20.234,44.739, 45.128,44.739c 24.934,0, 45.169-20.019, 45.169-44.739c0-0.205,0-0.42-0.041-0.625l 0.041,0 L 501.76,131.062 L 501.76,326.431 
			C 501.76,332.063, 497.213,336.64, 491.592,336.64z M 102.431,284.303l0-50.463 l-61.030,0 l 7.629,42.813c 0.635,5.12, 5.089,8.899, 9.533,8.899l 43.868,0 L 102.431,284.303 z"  />
<glyph unicode="&#xe055;" d="M 256,480c-84.828,0-153.6-68.157-153.6-152.228c0-84.081, 153.6-359.782, 153.6-359.782s 153.6,275.702, 153.6,359.782C 409.6,411.843, 340.828,480, 256,480z
	 M 255.498,282.245c-26.184,0-47.401,21.043-47.401,46.981c0,25.958, 21.217,46.991, 47.401,46.991c 26.204,0, 47.421-21.033, 47.421-46.991
	C 302.92,303.288, 281.702,282.245, 255.498,282.245z"  />
<glyph unicode="&#xe056;" d="M 256,469.76C 120.484,469.76, 10.24,359.516, 10.24,224c0-135.506, 110.244-245.76, 245.76-245.76c 135.506,0, 245.76,110.254, 245.76,245.76C 501.76,359.516, 391.506,469.76, 256,469.76z M 286.72,21.76L 286.72,111.36 l-61.44,0 
	l0-89.6 C 136.96,35.144, 67.144,104.96, 53.76,193.28L 143.36,193.28 l0,61.44 L 53.76,254.72 C 67.144,343.040, 136.96,412.856, 225.28,426.24L 225.28,336.64 l 61.44,0 L 286.72,426.24 
	C 375.040,412.856, 444.856,343.040, 458.24,254.72L 368.64,254.72 l0-61.44 l 89.6,0 C 444.856,104.96, 375.040,35.144, 286.72,21.76z"  />
<glyph unicode="&#xe057;" d="M 256-21.76C 120.484-21.76, 10.24,88.494, 10.24,224C 10.24,359.516, 120.484,469.76, 256,469.76c 135.506,0, 245.76-110.244, 245.76-245.76C 501.76,88.494, 391.506-21.76, 256-21.76z M 256,428.8
		C 143.073,428.8, 51.2,336.927, 51.2,224c0-112.927, 91.873-204.8, 204.8-204.8c 112.927,0, 204.8,91.873, 204.8,204.8C 460.8,336.927, 368.927,428.8, 256,428.8zM 256.461,395.52C 256.461,395.52, 184.32,271.913, 184.32,234.24c0-3.983,0-16.548,0-20.48c0-37.663, 72.356-163.84, 72.356-163.84S 327.68,173.476, 327.68,211.139
	c0,3.963,0,19.22,0,23.163C 327.68,271.974, 256.461,395.52, 256.461,395.52z M 256,183.040c-22.62,0-40.96,18.34-40.96,40.96c0,22.62, 18.34,40.96, 40.96,40.96c 22.62,0, 40.96-18.34, 40.96-40.96
	C 296.96,201.38, 278.62,183.040, 256,183.040z"  />
<glyph unicode="&#xe058;" d="M 254.433,200.776c 36.321,0, 53.156-27.546, 56.689-66.683c 0.829-9.359-0.010-23.009-1.229-38.82C 305.818,42.762, 301.128-21.76, 336.077-21.76
	c 29.594,0, 44.759,56.73, 53.545,121.405c 8.458,64.020-0.522,95.877, 3.912,124.314c 8.407,53.862, 55.419,102.154, 40.899,170.834
	c-8.049,38.103-29.041,56.013-49.807,63.56c-47.862,17.418-78.787-16.148-130.191-16.148c-51.395,0-82.299,33.567-130.181,16.148
	c-20.756-7.537-41.759-25.457-49.828-63.56c-14.49-68.68, 32.512-116.961, 40.95-170.834c 4.393-28.426-4.536-60.293, 3.912-124.314
	C 128.051,34.97, 143.247-21.76, 172.81-21.76c 34.929,0, 30.269,64.522, 26.194,117.033c-1.188,15.821-2.089,29.471-1.239,38.83
	C 201.288,173.23, 218.368,200.776, 254.433,200.776z"  />
<glyph unicode="&#xe059;" d="M 201.38,345.129l-75.069,0 L 126.31,419.133 l 20.47,0 L 146.78,459.52 L 10.24,459.52 l0-40.387 l 20.48,0 l0-114.381 c0-29.737, 24.453-53.832, 54.61-53.832l 116.050,0 l0-20.193 l 40.97,0 L 242.35,365.302 l-40.97,0 
			L 201.38,345.129 zM 481.26,176.906l0,114.381 c0,29.727-24.443,53.832-54.569,53.832L 310.62,345.119 l0,20.173 l-40.97,0 l0-134.584 l 40.97,0 l0,20.204 l 75.080,0 l0-74.004 l-20.449,0 
			l0-40.387 L 501.76,136.52 l0,40.387 L 481.26,176.906 zM 470.743,25.385c0,20.419-37.253,77.486-37.253,77.486s-37.816-57.068-37.816-77.486c0-20.378, 16.814-36.905, 37.54-36.905
		C 453.929-11.52, 470.743,5.007, 470.743,25.385z"  />
<glyph unicode="&#xe05b;" d="M 94.925,285.44l 40.1,0 l 6.164-184.32L 89.59,101.12 L 94.925,285.44L 94.925,285.44z M 61.44,90.88l 389.12,0 l0-20.48 l 30.72,0 l0-30.72 l 20.48,0 l0-20.48 L 10.24,19.2 l0,20.48 l 20.48,0 l0,30.72 l 30.72,0 L 61.44,90.88 L 61.44,90.88z M 471.040,338.565L 256.020,428.8L 40.96,338.565L 40.96,326.4 
		l 430.080,0 L 471.040,338.565 L 471.040,338.565z M 81.92,316.16l 348.16,0 l0-20.48 L 81.92,295.68 L 81.92,316.16 z M 376.177,285.44l 40.079,0 l 6.216-184.32l-51.671,0 L 376.177,285.44z M 282.46,285.44l 40.079,0 l 6.144-184.32l-51.62,0 L 282.46,285.44
		L 282.46,285.44z M 188.723,285.44l 40.090,0 l 6.103-184.32l-51.599,0 L 188.723,285.44z"  />
<glyph unicode="&#xe05a;" d="M 277.668,202.957C 275.313,204.39, 276.48,205.711, 266.24,206.93l0-29.665 c0,0.287, 4.424,0.635, 5.612,1.044
		c 7.598,2.662, 11.407,7.629, 11.407,14.858C 283.259,197.356, 281.385,200.653, 277.668,202.957zM 231.578,251.361c0-4.557, 2.079-7.987, 6.216-10.24c 1.587-0.891, 4.26-1.884, 7.956-2.959l0,28.068 
		c-3.011-0.707-5.652-1.772-7.875-3.226C 233.677,260.219, 231.578,256.328, 231.578,251.361zM 256,326.4c-50.903,0-92.16-45.855-92.16-102.4c0-56.535, 41.257-102.4, 92.16-102.4c 50.903,0, 92.16,45.865, 92.16,102.4C 348.16,280.545, 306.903,326.4, 256,326.4z M 295.465,166.103
		C 288.512,160.164, 276.48,156.529, 266.24,155.156L 266.24,142.080 l-20.48,0 l0,13.312 c-10.691,1.454-19.548,3.072-26.501,8.55C 209.613,171.54, 204.8,183.040, 204.8,193.28l 25.477,0 
		c 0.829,0, 2.447-8.202, 4.864-11.1c 2.509-2.98, 6.072-3.328, 10.619-4.588l0,34.867 c-12.462,2.877-21.146,5.98-25.969,9.318
		c-8.612,5.888-12.913,15.114-12.913,27.648c0,11.438, 4.209,20.941, 12.636,28.508c 6.431,5.786, 15.196,9.339, 26.245,10.711L 245.76,305.92 l 20.48,0 l0-17.818 
		c 10.24-1.526, 17.162-6.277, 23.552-11.018C 299.407,269.947, 306.176,264.96, 306.637,244.48l-25.661,0 c-0.481,10.24-5.622,14.664-12.001,17.9
		C 268.636,262.543, 266.24,264.356, 266.24,264.499l0-32.184 l 9.236-1.782c 9.82-2.314, 18.903-5.407, 23.798-9.267c 7.619-6.021, 10.568-14.715, 10.568-26.081
		C 309.862,183.511, 304.476,173.824, 295.465,166.103zM 440.32,357.12L 71.68,357.12 L0,357.12 l0-71.68 l0-122.88 l0-71.68 l 71.68,0 l 368.64,0 l 71.68,0 l0,71.68 L 512,285.44 l0,71.68 L 440.32,357.12 z M 491.52,159.785c-23.839-6.584-41.841-24.566-48.425-48.425L 68.905,111.36 
	c-6.595,23.839-24.576,41.841-48.425,48.425L 20.48,288.215 c 23.849,6.595, 41.83,24.576, 48.425,48.425l 374.426,0 c 6.881-23.112, 25.078-41.308, 48.189-48.189L 491.52,159.785 z
	"  />
<glyph unicode="&#xe05c;" d="M 303.278,480L 71.68,480 l0-512 l 112.64,0 L 184.32,131.84 l 118.958,0 c 127.631,0, 177.091,101.079, 177.091,184.525C 480.369,399.38, 430.909,480, 303.278,480z M 272.425,234.24L 184.32,234.24 L 184.32,387.84 l 88.105,0 
		c 52.357,0, 99-11.551, 99-76.667C 371.415,245.658, 324.782,234.24, 272.425,234.24zM-163.84,469.76L-163.84,469.76L-163.84,469.76L-163.84,469.76z"  />
<glyph unicode="&#xe05d;" d="M 185.344,228.68L 91.095,281.825L 123.853,339.272L 218.122,286.157 		zM 373.453,179.651L 214.2,269.353L 197.827,240.599L 357.059,150.886 		zM 392.786,168.745L 376.361,140.012L 458.486,93.788L 474.911,122.491 		zM 370.668,140.012c-1.26-2.243-4.7-2.775-7.69-1.137l0,0c-2.98,1.679-4.301,4.864-3.031,7.137l 19.2,33.638
			c 1.321,2.284, 4.762,2.836, 7.721,1.137l0,0c 2.939-1.679, 4.27-4.936, 3-7.219L 370.668,140.012zM 491.827,121.59c-3.267,1.802-6.871,2.642-10.353,2.54l-21.002-36.782c 1.69-3.082, 4.209-5.775, 7.526-7.578
			c 9.257-5.243, 20.9-2.222, 25.989,6.676l 5.386,9.523C 504.474,104.929, 501.115,116.347, 491.827,121.59zM 227.236,297.226c-2.468-4.465-8.090-5.96-12.544-3.502l-82.493,46.51c-4.465,2.478-5.97,8.059-3.471,12.524l0,0
			c 2.509,4.383, 8.141,5.949, 12.595,3.42l 82.473-46.449C 228.219,307.2, 229.796,301.609, 227.236,297.226L 227.236,297.226zM 238.797,317.42c-2.54-4.454-8.161-5.96-12.564-3.482l-82.524,46.5c-4.434,2.478-5.99,8.069-3.451,12.462l0,0
			c 2.478,4.454, 8.11,6.001, 12.595,3.492l 82.493-46.459C 239.8,327.424, 241.316,321.823, 238.797,317.42L 238.797,317.42zM 169.083,195.113c-2.54-4.403-8.161-5.898-12.585-3.42l-82.555,46.51c-4.424,2.458-5.97,8.059-3.461,12.524l0,0
			c 2.509,4.321, 8.212,5.949, 12.585,3.42l 82.514-46.51C 170.015,205.169, 171.551,199.567, 169.083,195.113L 169.083,195.113zM 180.613,215.378c-2.509-4.454-8.131-5.949-12.636-3.43L 85.484,258.406c-4.403,2.529-5.97,8.12-3.471,12.524l0,0
			c 2.55,4.444, 8.172,5.949, 12.605,3.43l 82.483-46.459C 181.524,225.382, 183.122,219.771, 180.613,215.378L 180.613,215.378zM 42.179,132.649L 187.628,132.649L 187.628,115.927L 42.179,115.927zM 219.392,97.772c-0.932,5.581-5.755,9.861-11.622,9.861L 22.077,107.633 c-5.857,0-10.711-4.28-11.622-9.861L 10.24,97.772 l0-27.382 l 209.367,0 l0,27.382 
			L 219.392,97.772 z"  />
<glyph unicode="&#xe05e;" d="M 419.84,469.76L 92.16,469.76 C 69.632,469.76, 51.2,451.328, 51.2,428.8l0-409.6 c0-22.528, 18.432-40.96, 40.96-40.96l 327.68,0 c 22.528,0, 40.96,18.432, 40.96,40.96L 460.8,428.8 C 460.8,451.328, 442.368,469.76, 419.84,469.76z M 174.080,60.16c0-11.264-9.216-20.48-20.48-20.48l-40.96,0 
	c-11.264,0-20.48,9.216-20.48,20.48l0,10.24 c0,11.264, 9.216,20.48, 20.48,20.48l 40.96,0 c 11.264,0, 20.48-9.216, 20.48-20.48L 174.080,60.16 z M 174.080,142.080c0-11.264-9.216-20.48-20.48-20.48l-40.96,0 c-11.264,0-20.48,9.216-20.48,20.48l0,10.24 c0,11.264, 9.216,20.48, 20.48,20.48l 40.96,0 
	c 11.264,0, 20.48-9.216, 20.48-20.48L 174.080,142.080 z M 174.080,224c0-11.264-9.216-20.48-20.48-20.48l-40.96,0 c-11.264,0-20.48,9.216-20.48,20.48l0,10.24 c0,11.264, 9.216,20.48, 20.48,20.48l 40.96,0 c 11.264,0, 20.48-9.216, 20.48-20.48L 174.080,224 z M 296.96,60.16c0-11.264-9.216-20.48-20.48-20.48
	l-40.96,0 c-11.264,0-20.48,9.216-20.48,20.48l0,10.24 c0,11.264, 9.216,20.48, 20.48,20.48l 40.96,0 c 11.264,0, 20.48-9.216, 20.48-20.48L 296.96,60.16 z M 296.96,142.080c0-11.264-9.216-20.48-20.48-20.48l-40.96,0 c-11.264,0-20.48,9.216-20.48,20.48l0,10.24 c0,11.264, 9.216,20.48, 20.48,20.48l 40.96,0 
	c 11.264,0, 20.48-9.216, 20.48-20.48L 296.96,142.080 z M 296.96,224c0-11.264-9.216-20.48-20.48-20.48l-40.96,0 c-11.264,0-20.48,9.216-20.48,20.48l0,10.24 c0,11.264, 9.216,20.48, 20.48,20.48l 40.96,0 c 11.264,0, 20.48-9.216, 20.48-20.48L 296.96,224 z M 419.84,60.16c0-11.264-9.216-20.48-20.48-20.48
	l-40.96,0 c-11.264,0-20.48,9.216-20.48,20.48l0,10.24 c0,11.264, 9.216,20.48, 20.48,20.48l 40.96,0 c 11.264,0, 20.48-9.216, 20.48-20.48L 419.84,60.16 z M 419.84,142.080c0-11.264-9.216-20.48-20.48-20.48l-40.96,0 c-11.264,0-20.48,9.216-20.48,20.48l0,10.24 c0,11.264, 9.216,20.48, 20.48,20.48l 40.96,0 
	c 11.264,0, 20.48-9.216, 20.48-20.48L 419.84,142.080 z M 419.84,224c0-11.264-9.216-20.48-20.48-20.48l-40.96,0 c-11.264,0-20.48,9.216-20.48,20.48l0,10.24 c0,11.264, 9.216,20.48, 20.48,20.48l 40.96,0 c 11.264,0, 20.48-9.216, 20.48-20.48L 419.84,224 z M 419.84,316.16c0-11.264-9.216-20.48-20.48-20.48
	L 112.64,295.68 c-11.264,0-20.48,9.216-20.48,20.48L 92.16,398.080 c0,11.264, 9.216,20.48, 20.48,20.48l 286.72,0 c 11.264,0, 20.48-9.216, 20.48-20.48L 419.84,316.16 z"  />
<glyph unicode="&#xe05f;" d="M 409.6,285.44l0-40.96 L 112.64,244.48 l0,40.96 L 409.6,285.44  M 419.84,295.68L 102.4,295.68 l0-61.44 l 317.44,0 L 419.84,295.68 L 419.84,295.68zM 261.755,449.628L0,264.96l 61.44,0 l0-36.936 L 61.44,39.68 l 40.96,0 L 102.4,193.28 l 81.92,0 l0-153.6 l 26.931,0 L 460.8,39.68 l0,8.98 L 460.8,228.024 L 460.8,264.96 l 51.2,0 L 261.755,449.628z M 430.080,101.12L 235.52,101.12 l0,92.16 l 194.56,0 L 430.080,101.12 z M 430.080,224L 92.16,224 l0,81.92 l 337.92,0 L 430.080,224 
		z"  />
</font>
</defs>
</svg>
